Сегодня идет свободное скачивание без начисления Download

Любопытная Варвара (8 серий из 8) (2012) DVB

Ответить на тему
 
Автор
Сообщение

Omen ®

Стаж: 5 лет 6 месяцев

Сообщений: 186946

Торрент-статистика

Пост 11-Янв-2013 05:49

[Цитировать]

-Любопытная Варвара (8 серий из 8) (2012) DVB - Русское название: Любопытная Варвара
Выпущено: Россия, "Продюсерский центр ПРО100 фильм"
Год выпуска: 2012
Жанр: Детектив, Мелодрама

Премьера (РФ): 24 декабря 2012 (Первый канал)
Режиссер: Саша Кириенко
Актеры: Елена Яковлева, Виталий Хаев, Андрей Кузичёв, Дарья Волга, Петр Баранчеев, Рамиля Искандер, Алексей Юрченко, Софья Лукьянова, Юлия Сулес, Людмила Артемьева, Дарья Грачёва, Олег Осипов (II), Виктория Садовская-Чилап, Анастасия Сапожникова, Алексей Зуев, Юлия Пожидаева, Валентина Ананьина, Дмитрий Зеничев, Ариана Стрелкова, Анна Данилова, Олег Алмазов
Описание фильма:
Главная героиня истории — Варвара Ивановна Слуцкая. Бывшая учительница, ныне пенсионерка. Обожает читать детективы Агаты Кристи и всюду совать свой нос. Варвара Ивановна переезжает в квартиру к своему сыну Роману и его жене Алёне помогать с воспитанием внуков Гоши и Лизы. Поначалу отношения Варвары Ивановны с невесткой складываются не очень гладко: две хозяйки «на одной кухне» всегда сложно уживаются. К тому же у Варвары Ивановны свои взгляды и методы воспитания внуков.
Алена считает их слишком мягкими. Однажды Варвара Ивановна возвращалась домой и обнаружила в лифте труп соседки. Дело ведет следователь ОВД, сосед и друг четы Слуцких — Иван Болотников. Естественно, непоседа Варвара Ивановна начинает свое расследование. В этом ей помогает еще один сосед — пенсионер и бывший преподаватель в Академии Контрразведки — Вязьмин. Безудержная энергия, врожденная любопытность вкупе с деликатностью пожилого учителя и, конечно, доскональное знание детективного жанра позволяют Варваре Ивановне смотреть на преступление немного под другим углом, нежели следователю…
Продолжительность: серия ~ 00:50
Качество видео: DVB
Формат : MPEG-PS
Видеокодек: MPEG2
Битрейт видео: ~4207 kbps avg
Размер кадра: 720x576**1024х576 (16:9), 25.000 fps
Аудиокодек: MPEG Audio Layer 2
Аудио: 48 kHz, 2 ch, ~192 kbps avg
Субтитры: отсутствуют

MediaInfo:

Формат : MPEG-PS
Размер файла : 1,57 Гбайт
Продолжительность : 50 м.
Режим общего битрейта : Переменный
Общий поток : 4488 Кбит/сек
Библиотека кодирования : (c) 1998-2012 Womble Multimedia, Inc. / MPEG Video Wizard DVD 5.0.1.100 (03/2011)
Видео
Идентификатор : 224 (0xE0)
Формат : MPEG Video
Версия формата : Version 2
Профиль формата : Main@Main
Параметр BVOP формата : Да
Параметр матрицы формата : Выборочная
Параметр GOP формата : M=3, N=12
Продолжительность : 50 м.
Вид битрейта : Переменный
Битрейт : 4207 Кбит/сек
Максимальный битрейт : 15,0 Мбит/сек
Ширина : 720 пикселей
Высота : 576 пикселей
Соотношение сторон : 16:9
Частота кадров : 25,000 кадров/сек
Стандарт вещания : PAL
Цветовое пространство : YUV
Субдискретизация насыщенности : 4:2:0
Битовая глубина : 8 бит
Тип развёртки : Чересстрочная
Порядок развёртки : Верхнее поле первое
Метод сжатия : С потерями
Бит/(Пиксели*Кадры) : 0.406
Размер потока : 1,48 Гбайт (94%)
Аудио
Идентификатор : 192 (0xC0)
Формат : MPEG Audio
Версия формата : Version 1
Профиль формата : Layer 2
Продолжительность : 50 м.
Вид битрейта : Постоянный
Битрейт : 192 Кбит/сек
Каналы : 2 канала
Частота : 48,0 КГц
Метод сжатия : С потерями
Задержка видео : -40 мс.
Размер потока : 69,0 Мбайт (4%)
Скриншоты:
         
         
[url=/forum/viewtopic.php?t=593918]Любопытная Варвара [8 серий из 8] (2012) SATRip[/url]Время раздачи: 24/7
Вне форума [Профиль] [ЛС]
Показать сообщения:    
Ответить на тему

Текущее время: Сегодня 00:07

Часовой пояс: GMT + 3



Вы не можете начинать темы
Вы не можете отвечать на сообщения
Вы не можете редактировать свои сообщения
Вы не можете удалять свои сообщения
Вы не можете голосовать в опросах
Вы не можете прикреплять файлы к сообщениям
Вы не можете скачивать файлы