Сегодня идет свободное скачивание без начисления Download

Сваты 3 (2009) 1080i HDTV [1-12 серии из 12]

Ответить на тему
 
Автор
Сообщение

Omen ®

Стаж: 5 лет 10 месяцев

Сообщений: 184329

Торрент-статистика

Пост 11-Янв-2013 05:49

[Цитировать]

-Сваты 3 (2009) 1080i HDTV [1-12 серии из 12]- Русское название: Сваты 3
Год выпуска: 2009
Жанр: Комедия, Семейный
Телеканал Украина / Квартал-95, Телеканал Интер
Формат: mkv

Дата российской премьеры: 11 ноября 2009
Дата выхода DVD/Blu-Ray релиза: 3 июня 2010, «Флагман-Трейд»
Режиссер: Андрей Яковлев
Актеры: Людмила Артемьева, Федор Добронравов, Татьяна Кравченко, Анатолий Васильев, София Стеценко, Николай Добрынин, Маргарита Шубина, Семен Фурман, Александр Игнатуша, Олег Примогенов
Описание фильма:
Главные герои сериала «Сваты» — девочка Женя и ее такие разные бабушки и дедушки:городские интеллигенты Ковалевы и типичные сельские жители Будько.
Родители Женечки — Маша и Максим — уезжают в Голландию и оставляют дочь в поселке на попечение Будько. Ковалевы приезжают помочь присмотреть за любимой внучкой, а заодно подготовить ее к поступлению в лицей! Так под одной крышей оказываются две семьи — городская и сельская. Противостояние между ними, сближение и объединение против общего врага обеспечивает сериал событиями и приключениями на все 12 серий!
Продолжительность: 12 серий по ~00:50 мин.
Качество видео: 1080i HDTV
Видеокодек: MPEG4/ISO/AVC
Битрейт видео: ~~7564 kbps avg
Размер кадра: 1920x1080
Аудиокодек: Russian: 48 kHz, MP2, 2/0 (L,R) ch,
Аудио: ~192.00 kbps avg
Субтитры: нет
Скриншоты:          
         

MediaInfo

Общее
Уникальный идентификатор : 208886625483701479743127226919355028924 (0x9D2619C77B6F1222B716ACF9BBA215BC)
Полное имя : Сваты.S03.1080i.HDTV.mkv\01.Сваты 3.mkv.mkv
Формат : Matroska
Версия формата : Version 4 / Version 2
Размер файла : 2,66 Гбайт
Продолжительность : 48 м.
Общий поток : 7914 Кбит/сек
Дата кодирования : UTC 2010-02-22 21:41:31
Программа кодирования : mkvmerge v5.9.0 ('On The Loose') built on Dec 9 2012 15:37:01
Библиотека кодирования : libebml v1.3.0 + libmatroska v1.4.0
Видео
Идентификатор : 1
Формат : AVC
Формат/Информация : Advanced Video Codec
Профиль формата : [url=mailto:High@L4.0]High@L4.0[/url]
Параметр CABAC формата : Да
Параметр ReFrames формата : 3 кадра
Идентификатор кодека : V_MPEG4/ISO/AVC
Продолжительность : 48 м.
Битрейт : 7564 Кбит/сек
Ширина : 1920 пикселей
Высота : 1080 пикселей
Соотношение сторон : 16:9
Режим частоты кадров : Постоянный
Частота кадров : 25,000 кадров/сек
Цветовое пространство : YUV
Субдискретизация насыщенности : 4:2:0
Битовая глубина : 8 бит
Тип развёртки : Чересстрочная
Порядок развёртки : Верхнее поле первое
Бит/(Пиксели*Кадры) : 0.146
Размер потока : 2,54 Гбайт (96%)
Default : Да
Forced : Нет
Аудио
Идентификатор : 2
Формат : MPEG Audio
Версия формата : Version 1
Профиль формата : Layer 2
Идентификатор кодека : A_MPEG/L2
Идентификатор кодека/Подсказка : MP2
Продолжительность : 48 м.
Вид битрейта : Постоянный
Битрейт : 192 Кбит/сек
Каналы : 2 канала
Частота : 48,0 КГц
Метод сжатия : С потерями
Размер потока : 66,0 Мбайт (2%)

Рецензия

На нашем телевидении очень мало достойных внимания отечественных сериалов, зато эфиры наполнены скучными,
безобразными проектами. Все истории повествуют о каких-то интрижках, грабителях, убийцах, но почти невозможно
найти добрый, веселый сериал…
Приятной неожиданностью для меня стал сериал Сваты, в котором было все: юмор, жизнелюбие, оптимизм,
прекрасный сюжет. Особенно порадовал третий сезон, который, несомненно, лучше первых двух частей.
Именно в этих 12 сериях создателям удалось глубже раскрыть характеры героев, успешной оказалась замена
исполнительницы роли Жени, ведь София Стеценко явно увереннее чувствует себя «в кадре». Актерская игра
старшего поколения Сватов на высочайшем уровне. Особой похвалы заслуживает робота Федора Добронравова,
Людмилы Артемьевой, Николая Добрынина и Анатолия Васильева, их герои: Иван Бутько, Елена Николаевна,
Митяй, дед Юра запомнятся нам надолго. Прекрасные «сельские виды» и отборный юмор дополняют позитивную
картину. Сваты стали всенародно любимым сериалом, ведь в не нет жестокости, насилия, грубости, а только
радость, веселье…Я посмотрел вышедшие на данный момент 5 сезонов и считаю, что звания «золотого» заслуживает
именно третий.
СватыВсем приятного просмотраВремя раздачи: 24х7 до 20 скачавших,далее по возможности
Вне форума [Профиль] [ЛС]
Показать сообщения:    
Ответить на тему

Текущее время: Сегодня 10:27

Часовой пояс: GMT + 3



Вы не можете начинать темы
Вы не можете отвечать на сообщения
Вы не можете редактировать свои сообщения
Вы не можете удалять свои сообщения
Вы не можете голосовать в опросах
Вы не можете прикреплять файлы к сообщениям
Вы не можете скачивать файлы