Сегодня идет свободное скачивание без начисления Download

Во саду ли, в огороде (4 серии из 4) (2012) DVB

Ответить на тему
 
Автор
Сообщение

Omen ®

Стаж: 5 лет 11 месяцев

Сообщений: 184329

Торрент-статистика

Пост 11-Янв-2013 05:49

[Цитировать]

-Во саду ли, в огороде (4 серии из 4) (2012) DVB - Оригинальное название: Во саду ли, в огороде
Год выпуска: 2012
Страна: Россия
Жанр: мелодрама-
Премьера (РФ): 29 декабря 2012 (Россия 1)
Режиссер: Максим Демченко
Актеры: Наталья Рогожкина, Владимир Литвинов, Сергей Пукита, Иван Краско, Николай Кучиц, Александра Кривошей, Александр Островский, Владимир Воронков, Денис Паршин, Владимир Ушаков (II), Алексей Сенчило, Татьяна Мархель, Виктор Молчан, Олег Радкевич, Ольга Бурлакова, Ирина Рыморова, Сергей Новицкий, Елена Дубровская, Максим Демченко, Лариса Маршалова, Вера Киселева, Валерий Агаян, Максим Дубовский, Андрей Душечкин, Анжела Кораблёва, Игорь Денисов, Илья Щелоков
Описание фильма:
Сорокопятилетняя «баба-ягодка» Валентина живет в деревне. Она пользуется любовью и уважением односельчан. Но она одинока – ее муж ушел от нее много лет назад, а дочь-красавица учится в областном центре и приезжает домой редко. Неожиданно на стихийном митинге односельчане смещают проворовавшегося Главу сельсовета и выбирают на его место Валентину. И хотя она только временно исполняет обязанности Главы, Валентина не привыкла работать вполсилы. Она со свойственной ей смекалкой и находчивостью решает ворох навалившихся проблем по благоустройству деревни, даже привозит нового фельдшера Николая и восстанавливает медпункт. Однако бывший Глава, продажный чиновник из районного центра и бухгалтер, который так и остался работать в сельсовете, хотят сместить Валентину и повесить на нее все недостачи, образовавшиеся во время правления бывшего Главы. Дело чуть не доходит до тюрьмы. А тут еще возвращается дочь Ольга и заявляет, что решила бросить учебу. А вскоре выясняется, что Ольга беременна...-Продолжительность: серия ~ 00:43
Качество видео: DVB
Видеокодек: MPEG2
Битрейт видео: ~5351 kbps avg
Размер кадра: 720x576 (4:3), 25.000 fps
Аудиокодек: MPEG Audio Layer 2
Аудио: 48 kHz, 2 ch, ~256 kbps avg
Субтитры: нет

MediaInfo:

Формат : MPEG-PS
Размер файла : 1,78 Гбайт
Продолжительность : 44 м.
Режим общего битрейта : Переменный
Общий поток : 5721 Кбит/сек
Библиотека кодирования : (c) 1998-2012 Womble Multimedia, Inc. / MPEG Video Wizard DVD 5.0.1.100 (03/2011) / Sep 7 2012
Видео
Идентификатор : 224 (0xE0)
Формат : MPEG Video
Версия формата : Version 2
Профиль формата : Main@Main
Параметр BVOP формата : Да
Параметр матрицы формата : Выборочная
Параметр GOP формата : M=3, N=15
Продолжительность : 44 м.
Вид битрейта : Переменный
Битрейт : 5351 Кбит/сек
Максимальный битрейт : 15,0 Мбит/сек
Ширина : 720 пикселей
Высота : 576 пикселей
Соотношение сторон : 4:3
Частота кадров : 25,000 кадров/сек
Стандарт вещания : PAL
Цветовое пространство : YUV
Субдискретизация насыщенности : 4:2:0
Битовая глубина : 8 бит
Тип развёртки : Чересстрочная
Порядок развёртки : Верхнее поле первое
Метод сжатия : С потерями
Бит/(Пиксели*Кадры) : 0.516
Размер потока : 1,66 Гбайт (94%)
Аудио
Идентификатор : 192 (0xC0)
Формат : MPEG Audio
Версия формата : Version 1
Профиль формата : Layer 2
Продолжительность : 44 м.
Вид битрейта : Постоянный
Битрейт : 256 Кбит/сек
Каналы : 2 канала
Частота : 48,0 КГц
Метод сжатия : С потерями
Задержка видео : -80 мс.
Размер потока : 81,4 Мбайт (4%)
Скриншоты:
         
         
Время раздачи: 24/7
Вне форума [Профиль] [ЛС]
Показать сообщения:    
Ответить на тему

Текущее время: Сегодня 11:52

Часовой пояс: GMT + 3



Вы не можете начинать темы
Вы не можете отвечать на сообщения
Вы не можете редактировать свои сообщения
Вы не можете удалять свои сообщения
Вы не можете голосовать в опросах
Вы не можете прикреплять файлы к сообщениям
Вы не можете скачивать файлы