Сегодня идет свободное скачивание без начисления Download

Новогодний переполох [1-4 серии из 4] (2012) DVBRip

Ответить на тему
 
Автор
Сообщение

Omen ®

Стаж: 5 лет 6 месяцев

Сообщений: 186946

Торрент-статистика

Пост 11-Янв-2013 05:49

[Цитировать]

-Новогодний переполох [1-4 серии из 4] (2012) DVBRip- Русское название: Новогодний переполох
Выпущено: Россия, Кинокомпания DT production
Год выпуска: 2012
Жанр: Комедия

Режиссер: Феликс Герчиков
Актеры: Мария Порошина, Даниил Спиваковский, Луиза-Габриэла Бровина, Сергей Чирков, Галина Петрова, Евгений Воскресенский, Нонна Гришаева, Владимир Стержаков, Татьяна Кравченко, Павел Прилучный
Описание фильма:
Маленький городок, где жизнь течёт размеренным шагом в предвкушении Нового года. Небольшая семья Шишкиных - это папа, мама и дочь Варя. Праздничный дух витает в воздухе и будоражит сознание детей и взрослых. Счастье когда дети верят в сказки деда Мороза и хотят получить от него подарки. так и Варя горит огромным желанием получить от деда Мороза в подарок птичку. Каждый занят своими заботами и проблемами. У папы небольшая шоколадная фабрика, где он пытается восстановить старинные традиции и увеличить производство. Мама ушла с головой в организацию выставки народных ремёсел. Спокойствие и идиллию нарушает Гарик, он неожиданно приезжает в город и устраивает настоящий переполох. Наступает Новый год и молодой, обаятельный мошенник вдруг оказывается на самом деле родным братом Вари, а маленькая птичка оказалась настоящим австралийским страусом.
Продолжительность: 4 серии по ~00:50 минут
Качество видео: DVBRip
Видеокодек: Xvid
Битрейт видео: ~1500 Kbit/s
Размер кадра: 704х400
Аудиокодек: MP3
Битрейт аудио: 128 Kbit/s

MediaInfo:

Формат : AVI
Формат/Информация : Audio Video Interleave
Размер файла : 583 Мбайт
Продолжительность : 49 м.
Общий поток : 1633 Кбит/сек
Программа кодирования : VirtualDubMod 1.5.10.1 (build 2366/release)
Библиотека кодирования : VirtualDubMod build 2366/release
Видео
Идентификатор : 0
Формат : MPEG-4 Visual
Профиль формата : Advanced Simple@L5
Параметр BVOP формата : 2
Параметр QPel формата : Нет
Параметр GMC формата : Без точки перехода
Параметр матрицы формата : Default (H.263)
Режим смешивания : Сжатый битовый поток
Идентификатор кодека : XVID
Идентификатор кодека/Подсказка : XviD
Продолжительность : 49 м.
Битрейт : 1495 Кбит/сек
Ширина : 704 пикселя
Высота : 400 пикселей
Соотношение сторон : 16:9
Частота кадров : 25,000 кадров/сек
Цветовое пространство : YUV
Субдискретизация насыщенности : 4:2:0
Битовая глубина : 8 бит
Тип развёртки : Прогрессивная
Метод сжатия : С потерями
Бит/(Пиксели*Кадры) : 0.212
Размер потока : 534 Мбайт (92%)
Библиотека кодирования : XviD 64
Аудио
Идентификатор : 1
Формат : MPEG Audio
Версия формата : Version 1
Профиль формата : Layer 3
Режим : Joint stereo
Идентификатор кодека : 55
Идентификатор кодека/Подсказка : MP3
Продолжительность : 49 м.
Вид битрейта : Постоянный
Битрейт : 128 Кбит/сек
Каналы : 2 канала
Частота : 48,0 КГц
Метод сжатия : С потерями
Размер потока : 45,7 Мбайт (8%)
Выравнивание : Разделение по промежуткам
Продолжительность промежутка : 40 мс. (1,00 видеокадр)
Время предзагрузки промежутка : 500 мс.
Скриншоты:
Время раздачи: по возможности круглосуточно
Вне форума [Профиль] [ЛС]
Похожие темы
Форум Тема Автор Торрент Отв. Посл. сообщение
./templates/default/images/folder_dl.gif Новинки (HD|DVD|BD|WEB|TV|SAT|PDTV|-Rip) Новогодний переполох (Кирилл Папакуль) [2017 г., комедия, семейный, WEB-DLRip] Original (RUS)][iTunes Russia] XP1971
1 | 0

0 | 1788

12

2018-01-31 10:13
XP1971 Последнее
Показать сообщения:    
Ответить на тему

Текущее время: Сегодня 18:34

Часовой пояс: GMT + 3



Вы не можете начинать темы
Вы не можете отвечать на сообщения
Вы не можете редактировать свои сообщения
Вы не можете удалять свои сообщения
Вы не можете голосовать в опросах
Вы не можете прикреплять файлы к сообщениям
Вы не можете скачивать файлы