Сегодня идет свободное скачивание без начисления Download

Время любить / Пора любви (1-4 серии из 4) (2012) (1080i) HDTV

Ответить на тему
 
Автор
Сообщение

Omen ®

Стаж: 5 лет 9 месяцев

Сообщений: 184393

Торрент-статистика

Пост 11-Янв-2013 05:48

[Цитировать]

-Время любить / Пора любви (1-4 серии из 4) (2012) (1080i) HDTV - Оригинальное название: Время любить / Пора любви
Год выпуска: 2012
Страна: Россия / Star Media по заказу ТК Россия 1
Жанр: мелодрама-
Премьера: 27 октября 2012 (Россия 1)
Режиссер: Анатолий Григорьев
Актеры: Олеся Судзиловская, Любовь Толкалина, Елена Панова, Павел Трубинер, Константин Милованов, Никита Салопин, Галина Польских, Матвей Зубалевич, Дария Боцманова, Яков Кучеревский, Дмитрий Суржиков, Антонина Паперная, Елена Бондарева-Репина, Виктор Григорьев.
Описание фильма:
Три подруги - Света, Жанна и Марина - едут отдыхать на море. Для каждой поездка – способ убежать от проблем. От Марины ушел муж. Стабильная жизнь рухнула в мгновение. Жанна никак не получит предложение руки и сердца от нерешительного школьного друга. А для Светланы поездка - способ уберечь сына от назойливых охотниц за московской квартирой. Отпуск для всех подруг - как нельзя кстати. Только на курорте женщин ждут новые испытания, встречи, свидания, разочарования… В итоге каждая обретет своё счастье! «Пора любви» изменит героинь до неузнаваемости, но объединять их будет одно — счастливые улыбки на лицах!-Продолжительность: серия ~ 00:44
Качество видео: HDTV
Формат : MPEG-TS
Видеокодек: AVC
Битрейт видео: ~ 9310 kbps avg
Размер кадра: 1920x1080 (16:9), 25.000 fps
Аудиокодек: MP2
Аудио: 48.0 kHz, 2 ch, ~224 kbps avg
Субтитры: Отсутствуют

MediaInfo:

Format : MPEG-TS
File size : 3.09 GiB
Duration : 44mn 5s
Overall bit rate mode : Variable
Overall bit rate : 10.0 Mbps
Video
ID : 69 (0x45)
Menu ID : 1 (0x1)
Format : AVC
Format/Info : Advanced Video Codec
Format profile : [url=mailto:High@L4.0]High@L4.0[/url]
Format settings, CABAC : Yes
Format settings, ReFrames : 3 frames
Codec ID : 27
Duration : 44mn 5s
Bit rate : 9 311 Kbps
Width : 1 920 pixels
Height : 1 080 pixels
Display aspect ratio : 16:9
Frame rate : 25.000 fps
Standard : Component
Color space : YUV
Chroma subsampling : 4:2:0
Bit depth : 8 bits
Scan type : Interlaced
Scan order : Top Field First
Bits/(Pixel*Frame) : 0.180
Stream size : 2.87 GiB (93%)
Color primaries : BT.709
Transfer characteristics : BT.709
Matrix coefficients : BT.709
Audio
ID : 68 (0x44)
Menu ID : 1 (0x1)
Format : MPEG Audio
Format version : Version 1
Format profile : Layer 2
Codec ID : 3
Duration : 44mn 5s
Bit rate mode : Constant
Bit rate : 224 Kbps
Channel(s) : 2 channels
Sampling rate : 48.0 KHz
Compression mode : Lossy
Stream size : 70.6 MiB (2%)
Language : English
Скриншоты:
         
         
[url=/forum/viewtopic.php?t=567011]Время любить (1-4 серии из 4) (2012) SATRip[/url]Время раздачи: 24/7
Вне форума [Профиль] [ЛС]
Показать сообщения:    
Ответить на тему

Текущее время: Сегодня 15:07

Часовой пояс: GMT + 3



Вы не можете начинать темы
Вы не можете отвечать на сообщения
Вы не можете редактировать свои сообщения
Вы не можете удалять свои сообщения
Вы не можете голосовать в опросах
Вы не можете прикреплять файлы к сообщениям
Вы не можете скачивать файлы