Сегодня идет свободное скачивание без начисления Download

Узкий мост (1-4 серии из 4) (2004) DVD5

Ответить на тему
 
Автор
Сообщение

Omen ®

Стаж: 5 лет 6 месяцев

Сообщений: 186946

Торрент-статистика

Пост 11-Янв-2013 05:48

[Цитировать]

-Узкий мост (1-4 серии из 4) (2004) DVD5
«Только не надо никогда и ничего бояться…»
- Русское название: Узкий мост
Год выпуска: 2004
Производство: Россия, Первый канал
Жанр: Мелодрама
Режиссер: Олег Базилов
Актеры: Александр Домогаров, Лидия Вележева, Инна Чурикова, Алексей Гуськов, Лия Ахеджакова, Мария Шукшина, Михаил Козаков, Гоша Куценко, Александр Самойленко, Евгения Добровольская, Владимир Грамматиков, Андрей Краско, Станислав Садальский, Роман Мадянов, Георгий Мартынюк, Юлия Рутберг, Инга Оболдина, Алексей Жарков, Александр Пашутин, Марина Голуб, Александр Мохов, Юрий Колокольников, Александр Сигуев, Марианна Шульц, Александр Олешко
Описание фильма:Молодая пара — искусствовед Лиля и некогда известный актер Анатолий после двенадцати лет жизни в Америке возвращаются в Москву. Анатолий любит свою жену Лилю, поэтому он согласился уехать из Америки. Лиля уехала из Америки, потому что она хочет, чтобы Анатолий был востребован как актер.
Друг Анатолия бизнесмен Володя любит свою бывшую жену Наташу, а его мама Роза Борисовна души не чает в своем сыне, не любит его бывшую жену и мечтает найти сыну достойную невесту. Друг Анатолия и Володи Дима влюблен в Лилю, но после знакомства с очередной «невестой» Володи бизнесвумен Ириной понимает, что нашел женщину своей мечты. В Лилю также влюблен Борис, хозяин галереи, где она работает, а Лиля любит своего мужа. Встречи, расставания, потери, обретения — все как в жизни, которая по словам героев фильма — очень узкий мост, только не надо никогда и ничего бояться…

Продолжительность: 4 серии ~ 00:47:00
Качество видео: DVD5
Видеокодек: MPEG2
Битрейт видео: ~ 3263.46 Кбит/сек
Размер кадра: 720x576@768x576
Аудио : Русский, AC3, 2 ch, 192 Кбит/сек
Доп. материалы на диске : Отсутствуют

DVDInfo

Код:
Title: Узкий мост (1-4 серии из 4) (2004) DVD5
Size: 4.37 Gb ( 4 577 780,00 KBytes ) - DVD-5
Enabled regions: 1, 2, 3, 4, 5, 6
VTS_01 :
  Play Length: 03:11:31
  Video: PAL 4:3 (720x576) VBR
  Audio:
      Not specified (Dolby AC3, 2 ch)
* Menus Information *
VIDEO_TS Menu
Video:
      PAL 4:3 (720x576) VBR
English Language Unit :
      Title Menu
VTS_01 Menu
Video:
      PAL 4:3 (720x576) VBR
English Language Unit :
      Root Menu
      Chapter (PTT) Menu

MediaInfo

Код:
Общее
Полное имя                               : E:\Раздачи\Узкий мост (1-4 серии из 4) (2004) DVD5\VIDEO_TS\VTS_01_1.VOB
Формат                                   : MPEG-PS
Размер файла                             : 1024 Мбайт
Продолжительность                        : 44 м.
Общий поток                              : 3232 Кбит/сек
Библиотека кодирования                   : (c) 1997-2003 Womble Multimedia, Inc. / MPEG-VCR V3.14 (08/2003) / Dec 19 2003
Видео
Идентификатор                            : 224 (0xE0)
Формат                                   : MPEG Video
Версия формата                           : Version 2
Профиль формата                          : Main@Main
Параметр BVOP формата                    : Да
Параметр матрицы формата                 : Выборочная
Продолжительность                        : 44 м.
Битрейт                                  : 2975 Кбит/сек
Максимальный битрейт                     : 9700 Кбит/сек
Ширина                                   : 720 пикселей
Высота                                   : 576 пикселей
Соотношение сторон                       : 4:3
Частота кадров                           : 25,000 кадров/сек
Стандарт вещания                         : PAL
Цветовое пространство                    : YUV
Субдискретизация насыщенности            : 4:2:0
Битовая глубина                          : 8 бит
Тип развёртки                            : Чересстрочная
Порядок развёртки                        : Верхнее поле первое
Метод сжатия                             : С потерями
Бит/(Пиксели*Кадры)                      : 0.287
Размер потока                            : 943 Мбайт (92%)
Библиотека кодирования                   : (c) 1997-2003 Womble Multimedia, Inc. / MPEG-VCR V3.14 (08/2003) / Dec 19 2003
Аудио
Идентификатор                            : 189 (0xBD)-128 (0x80)
Формат                                   : AC-3
Формат/Информация                        : Audio Coding 3
Расширение режима                        : CM (complete main)
Параметр Endianness формата              : Big
Режим смешивания                         : DVD-Video
Продолжительность                        : 44 м.
Вид битрейта                             : Постоянный
Битрейт                                  : 192 Кбит/сек
Каналы                                   : 2 канала
Расположение каналов                     : Front: L R
Частота                                  : 48,0 КГц
Битовая глубина                          : 16 бит
Метод сжатия                             : С потерями
Задержка видео                           : -40 мс.
Размер потока                            : 60,8 Мбайт (6%)
Меню

Скриншоты меню

 
Скриншоты:
         
         -Время раздачи: 9.00 - 23.00 (по мере возможности...)
Вне форума [Профиль] [ЛС]
Показать сообщения:    
Ответить на тему

Текущее время: Сегодня 02:22

Часовой пояс: GMT + 3



Вы не можете начинать темы
Вы не можете отвечать на сообщения
Вы не можете редактировать свои сообщения
Вы не можете удалять свои сообщения
Вы не можете голосовать в опросах
Вы не можете прикреплять файлы к сообщениям
Вы не можете скачивать файлы