Сегодня идет свободное скачивание без начисления Download

Варенька / Варенька-3. И в горе, и в радости (1-12 серии из 12) (2010) DVB

Ответить на тему
 
Автор
Сообщение

Omen ®

Стаж: 5 лет 6 месяцев

Сообщений: 186946

Торрент-статистика

Пост 11-Янв-2013 05:48

[Цитировать]

-Варенька / Варенька-3. И в горе, и в радости (1-12 серии из 12) (2010) DVB- Оригинальное название: Варенька / Варенька-3. И в горе, и в радости
Год выпуска: 2010
Страна: Россия / Кинокомпания «Русское»
Жанр: мелодрама-
Премьера (РФ): 5 февраля 2011 (Канал ТРК Украина), 30 апреля 2011 (Россия-1)
Режиссер: Валерий Девятилов
Актеры: Ирина Пегова, Андрей Егоров, Егор Лучишкин, Вячеслав Гришечкин, Раиса Рязанова, Кирилл Гребенщиков, Игорь Фурманюк, Майя Полянская, Анастасия Бусыгина, Виктория Адельфина, Денис Жариков, Анастасия Платонова, Наталья Щукина, Маша Астахова, Борис Тенин (II), Лаура Кеосаян, Максим Радугин, Гурам Баблишвили, Петр Баранчеев, Максим Демченко, Елена Калинина (IV), Ксения Непотребная, Михаил Слесарев, Василий Савинов, Юлия Кудояр, Карина Карпухина, Денис Юченков, Елена Гольянова, Вячеслав Кулаков, Жанна Никонова, Вадим Померанцев, Любовь Матюшина, Олег Васильков, Юрий Грубник, Сергей Плаксин, Георгий Мушеев, Андрей Перунов, Станислав Костецкий

Описание фильма:
История Вареньки, которая так полюбилась зрителям за ее доброту, искренность, умение любить – продолжается.. Преодолев все козни судьбы, героиня и ее возлюбленный Александр, готовятся к свадьбе, и, кажется, уже ничто не в силах помешать их любви. Однако в самый последний момент судьба вновь обманывает влюбленных. Муж Вареньки Михаил, заботясь о своей репутации политика, всеми правдами и неправдами пытается оттянуть развод. Пользуясь доверчивостью героини, Михаил втягивает ее в грязные политические игры, пытаясь подорвать доверие ее любимого. Тем временем, в жизнь Александра хитростью вторгается его бывшая жена Нина, которая решительно настроена вернуть «лучшего мужчину своей жизни»… В считанные дни, словно каким-то роковым магнитом, в судьбу героев втягиваются люди из прошлого и буквально переворачивают всю их жизнь.. Влюбленным уготованы страшные испытания, но они сделают всё, чтобы сберечь свою любовь, и в горе, и в болезни.. Но хватит ли сил вынести все злоключения, и обретет ли наконец Варенька заслуженное счастье?-Продолжительность: серия ~ 00:45
Качество видео: DVB
Видеокодек: MPEG2
Битрейт видео: ~5359 kbps avg
Размер кадра: 720x576 (4:3), 25.000 fps
Аудиокодек: MPEG Audio Layer 2
Аудио: 48 kHz, 2 ch, ~256 kbps avg
Субтитры: Отсутствуют

MediaInfo:

Format : MPEG-PS
File size : 1.64 GiB
Duration : 40mn 51s
Overall bit rate : 5 729 Kbps
Video
ID : 224 (0xE0)
Format : MPEG Video
Format version : Version 2
Format profile : Main@Main
Format settings, BVOP : Yes
Format settings, Matrix : Default
Duration : 40mn 51s
Bit rate mode : Variable
Bit rate : 5 359 Kbps
Nominal bit rate : 10 000 Kbps
Width : 720 pixels
Height : 576 pixels
Display aspect ratio : 4:3
Frame rate : 25.000 fps
Standard : PAL
Color space : YUV
Chroma subsampling : 4:2:0
Bit depth : 8 bits
Scan type : Interlaced
Scan order : Top Field First
Bits/(Pixel*Frame) : 0.517
Stream size : 1.53 GiB (94%)
Audio
ID : 192 (0xC0)
Format : MPEG Audio
Format version : Version 1
Format profile : Layer 2
Duration : 40mn 51s
Bit rate mode : Constant
Bit rate : 256 Kbps
Channel(s) : 2 channels
Sampling rate : 48.0 KHz
Video delay : -40ms
Stream size : 74.8 MiB (4%)
Скриншоты:
         
         
[url=/forum/viewtopic.php?t=291764]Варенька-3: И в горе, и в радости (12 из 12 серий) (2011) SATRip[/url]Время раздачи: 24/7
Вне форума [Профиль] [ЛС]
Показать сообщения:    
Ответить на тему

Текущее время: Сегодня 03:02

Часовой пояс: GMT + 3



Вы не можете начинать темы
Вы не можете отвечать на сообщения
Вы не можете редактировать свои сообщения
Вы не можете удалять свои сообщения
Вы не можете голосовать в опросах
Вы не можете прикреплять файлы к сообщениям
Вы не можете скачивать файлы