Сегодня идет свободное скачивание без начисления Download

Ты не один [1-2 серия из 8] (2013) SATRip [Обновляемая]

Ответить на тему
 
Автор
Сообщение

Omen ®

Стаж: 5 лет 7 месяцев

Сообщений: 185412

Торрент-статистика

Пост 11-Янв-2013 05:48

[Цитировать]

-Ты не один [1-2 серия из 8] (2013) SATRip [Обновляемая]- Русское название: Ты не один
Выпущено: Россия
Год выпуска: 2013
Жанр: Криминал, Детектив
Перевод: Не требуется (Русский)

Дата российской премьеры: 9 января 2013
Режиссер: Дмитрий Панченко
Актеры: Дмитрий Новицкий, Максим Радугин, Елена Болдина, Андрей Москвичев
Описание фильма:
Сериал "Ты не один" - истории о буднях адвокатов, чья специализация - оперативная работа по вызову. Трое сотрудников - юрист Владимир Николаевич Кузьмин, бывший оперуполномоченный милиции Максим Геннадьевич Загорский и выпускница престижного юридического ВУЗа Наталья Валерьевна Шатова, используя свои способности, возможности, полезные связи и контакты, экстренно приходят на помощь по первому звонку. Адвокаты работают как скорая помощь: спасают своих клиентов от выбивания долгов; защищают обманутых дольщиков; советуют, как выгодно развестись и избежать уплаты алиментов; помогают получить выплаты от страховой компании или по иску от ресторана за кишечное отравление... Каждая серия - законченное самостоятельное дело.
Продолжительность: 2 х ~ 00:25:53 серия
Качество видео: SATRip
Видеокодек: DivX 5
Битрейт видео: ~1600 Kbit/s
Размер кадра: 720 x 400
Аудиокодек: MP3, 2.0
Битрейт аудио: 192 Kbit/sВнимание! Раздача ведётся путём добавления новых серий

Внимание! Раздача ведётся путём добавления новых серий. Описание обновления торрента.

Внимание! Раздача ведётся путём добавления новых серий; при каждом добавлении создётся новый торрент. Чтобы начать докачку новой серии, пользователям необходимо сделать следующее:
(1) остановить скачивание,
(2) удалить старый торрент у себя из клиента (старые серии удалять не надо),
(3) скачать новый торрент и запустить его у себя в клиенте вместо старого, при этом указать клиенту путь в старую папку куда и должно происходить скачивание новых серий.
Ваш клиент при этом должен произвести хеширование (проверку) старой папки (если не производит сам - помогите ему сделать это), и будет докачивать только те серии которых у вас ещё нет. Старые серии при этом не удаляются, а продолжают раздаваться!
Eсли вы уже удалили старые серии, то предотвратить повторную закачку старых серий можно, отжав галочку в соответсвующих местах при запуске нового торрента. По возможности, желательно не удалять старые серии как можно дольше чтобы релизёр не столько продолжал раздавать старые серии, а смог сконцентрироваться на новых.

MediaInfo

Общее
Полное имя : D:\Торренты\Ты не один. 2013. SATRip\Ты не один. 01. 2013. SATRip.avi
Формат : AVI
Формат/Информация : Audio Video Interleave
Размер файла : 335 Мбайт
Продолжительность : 25 м.
Общий поток : 1809 Кбит/сек
Видео
Идентификатор : 0
Формат : MPEG-4 Visual
Профиль формата : Simple@L3
Параметр BVOP формата : Нет
Параметр QPel формата : Нет
Параметр GMC формата : Без точки перехода
Параметр матрицы формата : Default (H.263)
Идентификатор кодека : DX50
Идентификатор кодека/Подсказка : DivX 5
Продолжительность : 25 м.
Битрейт : 1600 Кбит/сек
Ширина : 720 пикс.
Высота : 400 пикс.
Соотношение сторон : 16:9
Частота кадров : 25,000 кадр/сек
Цветовое пространство : YUV
Подвыборка цветности : 4:2:0
Битовая глубина : 8 бит
Тип развёртки : Прогрессивная
Метод сжатия : С потерями
Бит/(Пиксели*Кадры) : 0.222
Размер потока : 296 Мбайт (88%)
Библиотека кодирования : XviD 1.2.1 (UTC 2008-12-04)
Аудио
Идентификатор : 1
Формат : MPEG Audio
Версия формата : Version 1
Профиль формата : Layer 3
Режим : Joint stereo
Расширение режима : MS Stereo
Идентификатор кодека : 55
Идентификатор кодека/Подсказка : MP3
Продолжительность : 25 м.
Вид битрейта : Постоянный
Битрейт : 192 Кбит/сек
Каналы : 2 канала
Частота : 48,0 КГц
Метод сжатия : С потерями
Размер потока : 35,6 Мбайт (11%)
Выравнивание : Соединение по промежуткам
Продолжительность промежутка : 24 мс. (0,60 видеокадр)
Библиотека кодирования : LAME3.98.2
Скриншоты:
           
Торрент обновлен!
Добавленa 2 серия!
Время раздачи: 24/7 по возможности
Вне форума [Профиль] [ЛС]
Показать сообщения:    
Ответить на тему

Текущее время: Сегодня 19:34

Часовой пояс: GMT + 3



Вы не можете начинать темы
Вы не можете отвечать на сообщения
Вы не можете редактировать свои сообщения
Вы не можете удалять свои сообщения
Вы не можете голосовать в опросах
Вы не можете прикреплять файлы к сообщениям
Вы не можете скачивать файлы