Сегодня идет свободное скачивание без начисления Download

Голубая стрела (1958) DVDRip

Ответить на тему
 
Автор
Сообщение

Omen ®

Стаж: 5 лет 8 месяцев

Сообщений: 184433

Торрент-статистика

Пост 09-Янв-2013 01:08

[Цитировать]

-Голубая стрела (1958) DVDRip- Русское название: Голубая стрела
Год выпуска: 1958
Страна: СССР
Жанр: Приключения
Описание фильма:
Офицер Дудник, отдыхая на пляже, знакомится с очаровательной девушкой. Пытаясь показать себя с наиболее выгодной стороны и произвести на собеседницу впечатление, он выбалтывает ей военную тайну: на советский флот поступает суперсамолет под названием "Голубая стрела". Более того, девушка узнает точное время проведения первого испытания новой модели…
Режиссер: Леонид Эстрин
Актеры: Владимир Волчик, Лидия Фреймане, Алексей Максимов, Юрий Максимов, Юрий Боголюбов, Павел Луспекаев, Борис Новиков, Иван Переверзев, Андрей Гончаров, Генрих Осташевский, Николай Муравьев, Константин Барташевич, Алексей Алексеев, Анвар Тураев, Неонила Гнеповская, Михаил Белоусов, Алексей Бахарь
Продолжительность: 01:28:10

Видеокодек: DivX 5
Битрейт видео: ~1825 kbps avg, 0.196 bit/pixel
Размер кадра: 704x528 (1.33:1), 25,000 fps
Качество видео: DVDRip
Аудиокодек: AC3 2.0
Битрейт аудио: 384.00 kbps avg, 48,0 kHz, 2 ch

MediaInfo

Код:
Общее
Полное имя                               : Golubaja_strela_DVDRip.avi
Формат                                   : AVI
Формат/Информация                        : Audio Video Interleave
Размер файла                             : 1,37 Гбайт
Продолжительность                        : 1 ч. 28 м.
Общий поток                              : 2219 Кбит/сек
Программа кодирования                    : VirtualDubModRus 1.5.10.2 (build 2542/release)
Библиотека кодирования                   : VirtualDubMod build 2542/release
Видео
Идентификатор                            : 0
Формат                                   : MPEG-4 Visual
Параметр BVOP формата                    : 2
Параметр QPel формата                    : Нет
Параметр GMC формата                     : Без точки перехода
Параметр матрицы формата                 : Default (H.263)
Режим смешивания                         : Сжатый битовый поток
Идентификатор кодека                     : DX50
Идентификатор кодека/Подсказка           : DivX 5
Продолжительность                        : 1 ч. 28 м.
Битрейт                                  : 1825 Кбит/сек
Ширина                                   : 704 пикселя
Высота                                   : 528 пикселей
Соотношение сторон                       : 4:3
Частота кадров                           : 25,000 кадров/сек
Цветовое пространство                    : YUV
Субдискретизация насыщенности            : 4:2:0
Битовая глубина                          : 8 бит
Тип развёртки                            : Прогрессивная
Метод сжатия                             : С потерями
Бит/(Пиксели*Кадры)                      : 0.196
Размер потока                            : 1,12 Гбайт (82%)
Библиотека кодирования                   : DivX 6.8.3-6.8.4 (UTC 2008-06-07)
Аудио
Идентификатор                            : 1
Формат                                   : AC-3
Формат/Информация                        : Audio Coding 3
Расширение режима                        : CM (complete main)
Параметр Endianness формата              : Big
Идентификатор кодека                     : 2000
Продолжительность                        : 1 ч. 28 м.
Вид битрейта                             : Постоянный
Битрейт                                  : 384 Кбит/сек
Каналы                                   : 2 канала
Расположение каналов                     : Front: L R
Частота                                  : 48,0 КГц
Битовая глубина                          : 16 бит
Метод сжатия                             : С потерями
Размер потока                            : 242 Мбайт (17%)
Выравнивание                             : Соединение по промежуткам
Продолжительность промежутка             : 40  мс. (1,00 видеокадр)
Время предзагрузки промежутка            : 512  мс.
Скриншоты:
                   
Время раздачи: 24/7 до 5 скачавших
Вне форума [Профиль] [ЛС]
Показать сообщения:    
Ответить на тему

Текущее время: Сегодня 07:08

Часовой пояс: GMT + 3



Вы не можете начинать темы
Вы не можете отвечать на сообщения
Вы не можете редактировать свои сообщения
Вы не можете удалять свои сообщения
Вы не можете голосовать в опросах
Вы не можете прикреплять файлы к сообщениям
Вы не можете скачивать файлы