Сегодня идет свободное скачивание без начисления Download

Хождение по мукам: Сёстры (1957) [H.264] DVDRip

Ответить на тему
 
Автор
Сообщение

Omen ®

Стаж: 5 лет 6 месяцев

Сообщений: 186946

Торрент-статистика

Пост 09-Янв-2013 00:52

[Цитировать]

-Сёстры (1957) [H.264] DVDRip- Русское название: Сёстры
Год выпуска: 1957
Жанр: Драма
Страна: СССР
Производство: Киностудия «Мосфильм»
Описание фильма:
Первый фильм кинотрилогии. Трилогия «Хождение по мукам» одно из самых значительных произведений А. Н. Толстого, в котором автор показывает жизнь нашей страны на рубеже двух эпох. Героини фильма — сестры Катя и Даша Булавины. Старшая, Катя, жена либерального адвоката Смоковникова, уже долгое время живет в тоске и отчаянии от пустоты собственной жизни. От мыслей самоубийства ее спасает офицер русской армии Вадим Рощин. Даша посещает кружок поэтов-футуристов, затем уезжает в Самару и на пароходе встречает своего давнего петербургского знакомого Ивана Телегина. Наступает восемнадцатый год…
Режиссер: Григорий Рошаль
Сценарий: Борис Чирсков, Элеонора Милова, Алексей Толстой
Композитор: Дмитрий Кабалевский
Актеры: Руфина Нифонтова, Нина Веселовская, Вадим Медведев, Николай Гриценко, Виктор Шарлахов, Владимир Муравьев, Владлен Давыдов, Павел Винников, Сергей Яковлев, Вадим Яковлев, Анатолий Дудоров, Мария Фигнер, Михаил Козаков
Продолжительность: 01:38:15
Cубтитры: Отсутствуют

Дата мировой премьеры: 24 сентября 1957
Релиз на DVD: 11 декабря 2008, «Мастер Тэйп»
Видеокодек: MPEG-4 AVC/H.264
Битрейт видео: ~2100 Кбит/сек
Размер кадра: 720x512
Качество видео: DVDRip
Аудиокодек: AC3 2.0
Битрейт аудио: 384 kbps

Знаете ли вы, что...

Фильм занимает по посещаемости 72-е место среди отечественных фильмов за всю историю советского кинопроката
Почётный диплом участия на МКФ в Локарно в 1958 году.

MediaInfo:

Общее
Уникальный идентификатор : 195652333973080354080894651498618473161 (0x933144D495F22776A4C4C6ABC56CCAC9)
Полное имя : D:\Downloads\Сёстры.mkv
Формат : Matroska
Версия формата : Version 2
Размер файла : 1,71 Гбайт
Продолжительность : 1 ч. 38 м.
Общий поток : 2485 Кбит/сек
Дата кодирования : UTC 2012-12-20 20:44:31
Программа кодирования : mkvmerge v5.7.0 ('The Whirlwind') built on Jul 29 2012 15:12:35
Библиотека кодирования : libebml v1.2.3 + libmatroska v1.3.0
Видео
Идентификатор : 1
Формат : AVC
Формат/Информация : Advanced Video Codec
Профиль формата : [url=mailto:High@L4.1]High@L4.1[/url]
Параметр CABAC формата : Да
Параметр ReFrames формата : 8 кадров
Режим смешивания : Header stripping
Идентификатор кодека : V_MPEG4/ISO/AVC
Продолжительность : 1 ч. 38 м.
Битрейт : 2100 Кбит/сек
Ширина : 720 пикселей
Высота : 512 пикселей
Соотношение сторон : 1,406
Режим частоты кадров : Постоянный
Частота кадров : 25,000 кадров/сек
Цветовое пространство : YUV
Субдискретизация насыщенности : 4:2:0
Битовая глубина : 8 бит
Тип развёртки : Прогрессивная
Бит/(Пиксели*Кадры) : 0.228
Размер потока : 1,41 Гбайт (83%)
Заголовок : Сёстры
Библиотека кодирования : x264 core 125 r2200 999b753
Настройки программы : cabac=1 / ref=8 / deblock=1:-1:-1 / analyse=0x3:0x133 / me=umh / subme=9 / psy=1 / psy_rd=1.00:0.15 / mixed_ref=1 / me_range=16 / chroma_me=1 / trellis=2 / 8x8dct=1 / cqm=0 / deadzone=21,11 / fast_pskip=1 / chroma_qp_offset=-3 / threads=3 / lookahead_threads=1 / sliced_threads=0 / nr=0 / decimate=1 / interlaced=0 / bluray_compat=0 / constrained_intra=0 / bframes=3 / b_pyramid=2 / b_adapt=2 / b_bias=0 / direct=3 / weightb=1 / open_gop=0 / weightp=2 / keyint=250 / keyint_min=25 / scenecut=40 / intra_refresh=0 / rc_lookahead=60 / rc=2pass / mbtree=1 / bitrate=2100 / ratetol=1.0 / qcomp=0.60 / qpmin=0 / qpmax=69 / qpstep=4 / cplxblur=20.0 / qblur=0.5 / ip_ratio=1.40 / aq=1:1.00
Язык : Russian
Default : Да
Forced : Нет
Аудио
Идентификатор : 2
Формат : AC-3
Формат/Информация : Audio Coding 3
Расширение режима : CM (complete main)
Параметр Endianness формата : Big
Режим смешивания : Header stripping
Идентификатор кодека : A_AC3
Продолжительность : 1 ч. 38 м.
Вид битрейта : Постоянный
Битрейт : 384 Кбит/сек
Каналы : 2 канала
Расположение каналов : Front: L R
Частота : 48,0 КГц
Битовая глубина : 16 бит
Метод сжатия : С потерями
Размер потока : 270 Мбайт (15%)
Заголовок : Русский
Язык : Russian
Default : Да
Forced : Нет
Скриншоты:                    Время раздачи: с 12:00 до 24:00 по Москве (выходные круглосуточно), до 10 скачавших
Вне форума [Профиль] [ЛС]
Похожие темы
Форум Тема Автор Торрент Отв. Посл. сообщение
./templates/default/images/folder_dl.gif Фильмы 2011-2016 Восхождение Юпитер / Jupiter Ascending (Энди Вачовски / Andy Wachowski, Лана Вачовски / Lana Wachowski) [2015 г., Фантастика, фэнтези, боевик, приключения, WEB-DLRip] Dub [iTunes] Clavik
1 | 0

1 | 2569

94

2016-01-02 08:28
Dracula Последнее
./templates/default/images/folder_dl.gif Моды TES IV: Oblivion - плагины, софт, патчи, прохождения (30.01.2015) [RUS] [Mods/Pack] Basil44
1 | 0

0 | 3161

2

2015-07-17 02:31
Basil44 Последнее
Показать сообщения:    
Ответить на тему

Текущее время: Сегодня 16:38

Часовой пояс: GMT + 3



Вы не можете начинать темы
Вы не можете отвечать на сообщения
Вы не можете редактировать свои сообщения
Вы не можете удалять свои сообщения
Вы не можете голосовать в опросах
Вы не можете прикреплять файлы к сообщениям
Вы не можете скачивать файлы