Сегодня идет свободное скачивание без начисления Download

Сердца четырёх (1941) [H.264] DVDRip

Ответить на тему
 
Автор
Сообщение

Omen ®

Стаж: 6 лет

Сообщений: 184329

Торрент-статистика

Пост 09-Янв-2013 00:28

[Цитировать]

-Сердца четырёх (1941) DVDRip- Русское название: Сердца четырёх
Год выпуска: 1941
Жанр: Комедия, Мелодрама
Описание фильма:
Одна из любимейших моих комедий о жизни и любви, начавшейся в летней довоенной Москве. В подмосковном дачном поселке был расквартирован полк танкистов. Сюжет строится вокруг двух сестер. Одна - серьезная и ученая математичка (Серова), а другая - легкомысленная и воздушная стрекоза (Целиковская). Естественно, присутствуют и бравый, подтянутый военный (Самойлов), организовавший на даче подготовку личного состава по математике, и интеллигентый, но несколько неловкий коллега-ученый. Возможно это лучшая отечественная комедия прошлых лет. Готов смотреть ее сколько угодно. В ней совершенно все. Классический водевиль. Черно-белый фильм выпущен на экраны в 1944-м, восстановлен в 1988 году.
Режиссер: Константин Юдин
Актеры: Валентина Серова, Евгений Самойлов, Людмила Целиковская, Павел Шпрингфельд, Л. Дмитриевская, Ирина Мурзаева, Андрей Тутышкин, Александр Антонов, Всеволод Санаев, Эммануил Геллер
Продолжительность: 01:29:21
Рейтинг G — Нет возрастных ограничений
Видеокодек: MPEG-4 AVC/H.264
Битрейт видео: ~1817 Кбит/сек
Размер кадра: 720 х 512
Качество видео: DVDRip
Аудиокодек: AC3 2.0
Битрейт аудио: 384 Кбит/сек

MediaInfo

Общее
Уникальный идентификатор : 191490074341175282472234801945923442705 (0x900FA5962B7E2D72822611B0A6F65811)
Полное имя : G:\_Reliz\Serdca chetyreh.1941.DVDRip-AVC.h264.almikl.mkv
Формат : Matroska
Версия формата : Version 4 / Version 2
Размер файла : 1,38 Гбайт
Продолжительность : 1 ч. 29 м.
Общий поток : 2201 Кбит/сек
Дата кодирования : UTC 2010-02-22 21:41:31
Программа кодирования : mkvmerge v5.9.0 ('On The Loose') built on Dec 9 2012 15:37:01
Библиотека кодирования : libebml v1.3.0 + libmatroska v1.4.0
Видео
Идентификатор : 1
Формат : AVC
Формат/Информация : Advanced Video Codec
Профиль формата : [url=mailto:High@L4.1]High@L4.1[/url]
Параметр CABAC формата : Да
Параметр ReFrames формата : 6 кадров
Идентификатор кодека : V_MPEG4/ISO/AVC
Продолжительность : 1 ч. 29 м.
Битрейт : 1817 Кбит/сек
Ширина : 720 пикселей
Высота : 512 пикселей
Соотношение сторон : 1,406
Режим частоты кадров : Постоянный
Частота кадров : 25,000 кадров/сек
Цветовое пространство : YUV
Субдискретизация насыщенности : 4:2:0
Битовая глубина : 8 бит
Тип развёртки : Прогрессивная
Бит/(Пиксели*Кадры) : 0.197
Размер потока : 1,11 Гбайт (81%)
Библиотека кодирования : x264 core 129 r2230 1cffe9f
Настройки программы : cabac=1 / ref=6 / deblock=1:-1:-1 / analyse=0x3:0x113 / me=umh / subme=10 / psy=1 / psy_rd=1.00:0.15 / mixed_ref=1 / me_range=32 / chroma_me=1 / trellis=2 / 8x8dct=1 / cqm=0 / deadzone=21,11 / fast_pskip=1 / chroma_qp_offset=-3 / threads=12 / lookahead_threads=2 / sliced_threads=0 / nr=0 / decimate=1 / interlaced=0 / bluray_compat=0 / constrained_intra=0 / bframes=10 / b_pyramid=2 / b_adapt=2 / b_bias=0 / direct=1 / weightb=1 / open_gop=0 / weightp=2 / keyint=250 / keyint_min=25 / scenecut=40 / intra_refresh=0 / rc_lookahead=40 / rc=2pass / mbtree=1 / bitrate=1817 / ratetol=1.0 / qcomp=0.60 / qpmin=10 / qpmax=51 / qpstep=4 / cplxblur=20.0 / qblur=0.5 / ip_ratio=1.40 / aq=1:1.00
Default : Да
Forced : Нет
Аудио
Идентификатор : 2
Формат : AC-3
Формат/Информация : Audio Coding 3
Расширение режима : CM (complete main)
Параметр Endianness формата : Big
Идентификатор кодека : A_AC3
Продолжительность : 1 ч. 29 м.
Вид битрейта : Постоянный
Битрейт : 384 Кбит/сек
Каналы : 2 канала
Расположение каналов : Front: L R
Частота : 48,0 КГц
Битовая глубина : 16 бит
Метод сжатия : С потерями
Размер потока : 246 Мбайт (17%)
Default : Да
Forced : Нет
Скриншоты:                  
Вне форума [Профиль] [ЛС]
Показать сообщения:    
Ответить на тему

Текущее время: Сегодня 02:33

Часовой пояс: GMT + 3



Вы не можете начинать темы
Вы не можете отвечать на сообщения
Вы не можете редактировать свои сообщения
Вы не можете удалять свои сообщения
Вы не можете голосовать в опросах
Вы не можете прикреплять файлы к сообщениям
Вы не можете скачивать файлы