Сегодня идет свободное скачивание без начисления Download

Семь стариков и одна девушка (1969) [H.264] DVDRip

Ответить на тему
 
Автор
Сообщение

Omen ®

Стаж: 5 лет 6 месяцев

Сообщений: 186946

Торрент-статистика

Пост 08-Янв-2013 23:24

[Цитировать]

-Семь стариков и одна девушка (1969) DVDRip- Русское название: Семь стариков и одна девушка
Год выпуска: 1969
Жанр: Комедия
Описание фильма:
Музыкальная телевизионная комедия Евгения Карелова в которой молодой тренер Лена Величко, девушка симпатичная и честолюбивая, мечтает о блестящей карьере, о воспитанниках-чемпионах.Однако выпускнице физкультурного института Лене поручили вести «группу здоровья». Занятия проводятся на стадионе, где ей самой хочется ставить рекорды, а тут нужно смотреть, как алкоголики, партработники и просто дистрофики пытаются совершать телодвижения. Уволиться невозможно — могут только уволить. Для этого она и начинает мучить и пытать несчастных, которые почему-то все в нее влюбляются.
Режиссер: Евгений Карелов
Актеры: Анатолий Адоскин, Борис Новиков, Николай Парфенов, Алексей Смирнов, Валентин Смирнитский, Борис Чирков, Светлана Савелова, Евгений Весник, Георгий Вицин, Юрий Никулин, Евгений Моргунов, Анатолий Папанов
Продолжительность: 01:18:01

Видеокодек: MPEG-4 AVC/H.264
Битрейт видео: ~2291 Кбит/сек
Размер кадра: 720х544
Качество видео: DVDRip
Аудиокодек: AC3 2.0
Битрейт аудио: 384 Кбит/сек

MediaInfo

Общее
Уникальный идентификатор : 173627692832938329637606848859911959556 (0x829F7A2F08B6DC4B99DE1F4A30DB3404)
Полное имя : G:\_Reliz\Sem' starikov i odna devushka.1969.DVDRip-AVC.h264.almikl.mkv
Формат : Matroska
Версия формата : Version 4 / Version 2
Размер файла : 1,46 Гбайт
Продолжительность : 1 ч. 18 м.
Общий поток : 2677 Кбит/сек
Дата кодирования : UTC 2010-02-22 21:41:31
Программа кодирования : mkvmerge v5.9.0 ('On The Loose') built on Dec 9 2012 15:37:01
Библиотека кодирования : libebml v1.3.0 + libmatroska v1.4.0
Видео
Идентификатор : 1
Формат : AVC
Формат/Информация : Advanced Video Codec
Профиль формата : [url=mailto:High@L4.1]High@L4.1[/url]
Параметр CABAC формата : Да
Параметр ReFrames формата : 6 кадров
Идентификатор кодека : V_MPEG4/ISO/AVC
Продолжительность : 1 ч. 18 м.
Битрейт : 2291 Кбит/сек
Ширина : 720 пикселей
Высота : 544 пикселя
Соотношение сторон : 4:3
Режим частоты кадров : Постоянный
Частота кадров : 25,000 кадров/сек
Цветовое пространство : YUV
Субдискретизация насыщенности : 4:2:0
Битовая глубина : 8 бит
Тип развёртки : Прогрессивная
Бит/(Пиксели*Кадры) : 0.234
Размер потока : 1,22 Гбайт (84%)
Библиотека кодирования : x264 core 129 r2230 1cffe9f
Настройки программы : cabac=1 / ref=6 / deblock=1:-1:-1 / analyse=0x3:0x113 / me=umh / subme=10 / psy=1 / psy_rd=1.00:0.15 / mixed_ref=1 / me_range=32 / chroma_me=1 / trellis=2 / 8x8dct=1 / cqm=0 / deadzone=21,11 / fast_pskip=1 / chroma_qp_offset=-3 / threads=12 / lookahead_threads=2 / sliced_threads=0 / nr=0 / decimate=1 / interlaced=0 / bluray_compat=0 / constrained_intra=0 / bframes=10 / b_pyramid=2 / b_adapt=2 / b_bias=0 / direct=1 / weightb=1 / open_gop=0 / weightp=2 / keyint=250 / keyint_min=25 / scenecut=40 / intra_refresh=0 / rc_lookahead=40 / rc=2pass / mbtree=1 / bitrate=2291 / ratetol=1.0 / qcomp=0.60 / qpmin=10 / qpmax=51 / qpstep=4 / cplxblur=20.0 / qblur=0.5 / ip_ratio=1.40 / aq=1:1.00
Default : Да
Forced : Нет
Аудио
Идентификатор : 2
Формат : AC-3
Формат/Информация : Audio Coding 3
Расширение режима : CM (complete main)
Параметр Endianness формата : Big
Идентификатор кодека : A_AC3
Продолжительность : 1 ч. 18 м.
Вид битрейта : Постоянный
Битрейт : 384 Кбит/сек
Каналы : 2 канала
Расположение каналов : Front: L R
Частота : 48,0 КГц
Битовая глубина : 16 бит
Метод сжатия : С потерями
Размер потока : 214 Мбайт (14%)
Default : Да
Forced : Нет

Коврик

 
Скриншоты:                    
Вне форума [Профиль] [ЛС]
Показать сообщения:    
Ответить на тему

Текущее время: Сегодня 16:51

Часовой пояс: GMT + 3



Вы не можете начинать темы
Вы не можете отвечать на сообщения
Вы не можете редактировать свои сообщения
Вы не можете удалять свои сообщения
Вы не можете голосовать в опросах
Вы не можете прикреплять файлы к сообщениям
Вы не можете скачивать файлы