Сегодня идет свободное скачивание без начисления Download

Большая семья (1954) DVDRip

Ответить на тему
 
Автор
Сообщение

Omen ®

Стаж: 6 лет

Сообщений: 184329

Торрент-статистика

Пост 08-Янв-2013 23:12

[Цитировать]

-Большая семья (1954) DVDRip- Русское название: Большая семья
Год выпуска: 1954
Страна: СССР
Жанр: Драма
Описание фильма:
В фильме рассказывается о большой семье Журбиных - потомственных рабочих-судостроителей. Вместе живут три поколения: дед Матвей, его сын Илья Матвеевич, его сыновья Алексей, Антон и Виктор, рождаются представители четвертого. Самым сложным характером отличается и самые сложные перипетии сюжета проходит младший сын Ильи Матвеевича Алексей: отделился от семьи, чтобы жить своим домом, потерял любимую девушку Катю, но нашел в себе силы вернуть её. Из семьи Журбиных уходит Лида, жена Виктора. Фоном семейным конфликтам служит реорганизация производства, так что всем членам семьи приходится менять профессию. Илья Журбин ссорится со своим старым другом мастером Басмановым и пытается изучить основы алгебры
Режиссер: Иосиф Хейфиц
Актеры: Сергей Лукьянов, Борис Андреев, Вера Кузнецова, Алексей Баталов, Сергей Курилов, Вадим Медведев, Борис Битюков, Ия Арепина, Клара Лучко, Екатерина Савинова, Павел Кадочников, Елена Добронравова, Николай Гриценко, Николай Сергеев, Владимир Татосов, Борис Коковкин, Юрий Назаров, Татьяна Пельтцер, Петр Лобанов
Продолжительность: 01:40:14

Видеокодек: Xvid
Битрейт видео: ~899 kbps avg, 0.117 bit/pixel
Размер кадра: 640x480 (1.33:1), 25 fps
Качество видео: DVDRip
Аудиокодек: MP3, 2 ch
Битрейт аудио: 128.00 kbps avg, 48,0 kHz

MediaInfo

Код:
Общее
Полное имя                               : bolshaya_semya.avi
Формат                                   : AVI
Формат/Информация                        : Audio Video Interleave
Размер файла                             : 743 Мбайт
Продолжительность                        : 1 ч. 40 м.
Общий поток                              : 1037 Кбит/сек
Программа кодирования                    : VirtualDubMod 1.5.10.2 (build 2540/release)
Библиотека кодирования                   : VirtualDubMod build 2540/release
Видео
Идентификатор                            : 0
Формат                                   : MPEG-4 Visual
Профиль формата                          : Advanced Simple@L5
Параметр BVOP формата                    : 2
Параметр QPel формата                    : Нет
Параметр GMC формата                     : Без точки перехода
Параметр матрицы формата                 : Default (MPEG)
Режим смешивания                         : Сжатый битовый поток
Идентификатор кодека                     : XVID
Идентификатор кодека/Подсказка           : XviD
Продолжительность                        : 1 ч. 40 м.
Битрейт                                  : 899 Кбит/сек
Ширина                                   : 640 пикселей
Высота                                   : 480 пикселей
Соотношение сторон                       : 4:3
Частота кадров                           : 25,000 кадров/сек
Цветовое пространство                    : YUV
Субдискретизация насыщенности            : 4:2:0
Битовая глубина                          : 8 бит
Тип развёртки                            : Прогрессивная
Метод сжатия                             : С потерями
Бит/(Пиксели*Кадры)                      : 0.117
Размер потока                            : 645 Мбайт (87%)
Библиотека кодирования                   : XviD 1.2.1 (UTC 2008-12-04)
Аудио
Идентификатор                            : 1
Формат                                   : MPEG Audio
Версия формата                           : Version 1
Профиль формата                          : Layer 3
Режим                                    : Joint stereo
Идентификатор кодека                     : 55
Идентификатор кодека/Подсказка           : MP3
Продолжительность                        : 1 ч. 40 м.
Вид битрейта                             : Постоянный
Битрейт                                  : 128 Кбит/сек
Каналы                                   : 2 канала
Частота                                  : 48,0 КГц
Метод сжатия                             : С потерями
Размер потока                            : 91,8 Мбайт (12%)
Выравнивание                             : Соединение по промежуткам
Продолжительность промежутка             : 40  мс. (1,00 видеокадр)
Время предзагрузки промежутка            : 504  мс.
Скриншоты:
                   

Рецензия, отзыв о фильме

Трудные вопросы… решаются сразу
Потрясающе! Ни одной фальшивой ноты! Даже пропаганда соцстроя выглядит органично - уметь просто надо. Обожаю этот фильм. Год, как умер Сталин, ещё во всех кабинетах его портреты, ещё не было ХХ съезда КПСС… Ну почему смотришь - и веришь каждому слову, каждому жесту, а ведь только и слышишь о тех временах: железный занавес, эпоха террора… А при нынешней, казалось бы, свободе… эх, смотришь - кривишься, как от кислого яблока, от лобовой агитки, скажем, «Тараса Бульбы».
Книга - да, фильм не перебивает, но, как бы сказать, дополняет, прорисовывает детали.
Фильм звёзд.
Алексей Баталов - понятно, украшение любого фильма.
45-летний Сергей Лукьянов младше своего экранного сына на 5 лет - но как сыграл 77-летнего патриарха, «ночного директора», как сыграл!!!
Борис Андреев, народный артист, когда-то отдавший своё место на Новодевичьем кладбище покойному другу - Петру Алейникову.
Елена Добронравова - какая красавица! И как играет, а ведь, если не ошибаюсь, это её первый фильм.
Клара Лучко - её героиня пережила смерть ребёнка и потерялась среди семейства Журбиных. И только через 10 лет нашла в себе силы сделать решительный шаг - попробовать найти себя в жизни. Так и неясно, что сулит их последняя встреча с Виктором…
Ой, а сцена, когда ночной сторож «учит» директора… Умора. Ругали, ругали тебя на собрании, а потом в ящичке что оказалось? Единогласно! Это ж не сейчас - 1) счетовод Иванов критикует директора; 2) прощание со счетоводом Ивановым.
Ну, и как забыть хор Журбиных, приезд Алёши за Катей, пароход «Матвей Журбин»…
Эх… 10 из 10.
Время раздачи: 24/7 до 5 скачавших
Вне форума [Профиль] [ЛС]
Похожие темы
Форум Тема Автор Торрент Отв. Посл. сообщение
./templates/default/images/folder_dl.gif Психология, Тренинг, Саморазвитие Лора Вандеркам | Книга о потерянном времени. У вас больше возможностей, чем вы думаете (2015) [PDF, EPUB, FB2] }{@R0N
2 | 0

0 | 671

12

2018-01-06 12:11
}{@R0N Последнее
./templates/default/images/folder_dl.gif Бизнес, Право, Экономика, Финансы Даниэль Дрешер | Основы блокчейна: вводный курс для начинающих в 25 небольших главах (2018) [PDF, RTF] }{@R0N
1 | 0

0 | 1004

16

2018-02-14 20:29
}{@R0N Последнее
Показать сообщения:    
Ответить на тему

Текущее время: Сегодня 02:33

Часовой пояс: GMT + 3



Вы не можете начинать темы
Вы не можете отвечать на сообщения
Вы не можете редактировать свои сообщения
Вы не можете удалять свои сообщения
Вы не можете голосовать в опросах
Вы не можете прикреплять файлы к сообщениям
Вы не можете скачивать файлы