Сегодня идет свободное скачивание без начисления Download

Карнавальная ночь (1956) [H.264] HDTVRip

Ответить на тему
 
Автор
Сообщение

Omen ®

Стаж: 5 лет 10 месяцев

Сообщений: 184329

Торрент-статистика

Пост 08-Янв-2013 22:36

[Цитировать]

- Карнавальная ночь (1956) HDTVRip - Оригинальное название: Карнавальная ночь
Год выпуска: 1956
Жанр: Комедия
Выпущено: СССР, Мосфильм--Режиссер: Эльдар Рязанов
В ролях: Игорь Ильинский (Серафим Иванович Огурцов, и.о. директора Дома культуры), Людмила Гурченко (Леночка Крылова), Юрий Белов (Гриша Кольцов), Георгий Куликов (Серёжа Усиков), Сергей Филиппов (лектор Никадилов), Ольга Власова (Аделаида Кузьминична Ромашкина), Андрей Тутышкин (Фёдор Петрович Миронов, бухгалтер), Тамара Носова (Тося Бурыгина, верная и исполнительная секретарша С.И.Огурцова), Геннадий Юдин (дирижёр оркестра), Владимир Зельдин (Николаев, клоун Топ), Борис Петкер (Сидоров, клоун Тип), Юрий Гусаков (чечёточник)-Описание фильма: Знаменитая новогодняя комедия - творческий дебют молодого режиссёра Эльдара Рязанова, покорившего своим фильмом весь Советский Союз. Фильм сразу же был разобран на цитаты, юная Людмила Гурченко тотчас же стала знаменитой, а песни "Пять минут" и "Песенка о хорошем настроении" стали народными. Этот фильм стал одним из символов Нового Года, эстафету у которого через двадцать лет перехватила знаменитая "Ирония судьбы" всё того же Эльдара Рязанова. Красивая, добрая, весёлая и немного наивная советская музыкальная комедия - один из шедевров советского кинематографа и символов эпохи...-Sample-Продолжительность: 01:12:25
Перевод: Оригинал (Русский)
Навигация по главам: есть--Качество видео: HDTVRip
Видеокодек: MPEG-4 AVC/H.264
Битрейт видео: ~ 2699 Кбит/с
Размер кадра: 784x576
Аудио: AC3, 6 ch, 448 Кбит/с-

MediaInfo

General
Unique ID : 254190207209820299685363951928356113483 (0xBF3B40CF53602FEA829AB7C284700C4B)
Complete name : G:\Karnavalnaja.noch.1956.(H.264).HDTVRip.mkv
Format : Matroska
Format version : Version 4 / Version 2
File size : 1.59 GiB
Duration : 1h 12mn
Overall bit rate : 3 149 Kbps
Movie name : Карнавальная ночь (1956) - release by ==nnlabetik==
Encoded date : UTC 2010-02-22 21:41:31
Writing application : mkvmerge v5.9.0 ('On The Loose') built on Dec 9 2012 15:37:01
Writing library : libebml v1.3.0 + libmatroska v1.4.0
Video
ID : 1
Format : AVC
Format/Info : Advanced Video Codec
Format profile : [url=mailto:High@L4.0]High@L4.0[/url]
Format settings, CABAC : Yes
Format settings, ReFrames : 9 frames
Codec ID : V_MPEG4/ISO/AVC
Duration : 1h 12mn
Bit rate : 2 699 Kbps
Width : 784 pixels
Height : 576 pixels
Display aspect ratio : 4:3
Frame rate : 25.000 fps
Color space : YUV
Chroma subsampling : 4:2:0
Bit depth : 8 bits
Scan type : Progressive
Bits/(Pixel*Frame) : 0.239
Stream size : 1.33 GiB (84%)
Writing library : x264 core 129 r2230 1cffe9f
Encoding settings : cabac=1 / ref=9 / deblock=1:-2:-1 / analyse=0x3:0x113 / me=umh / subme=10 / psy=1 / psy_rd=1.00:0.00 / mixed_ref=1 / me_range=32 / chroma_me=1 / trellis=2 / 8x8dct=1 / cqm=0 / deadzone=21,11 / fast_pskip=1 / chroma_qp_offset=-2 / threads=4 / lookahead_threads=1 / sliced_threads=0 / nr=0 / decimate=1 / interlaced=0 / bluray_compat=0 / constrained_intra=0 / bframes=11 / b_pyramid=2 / b_adapt=2 / b_bias=0 / direct=3 / weightb=1 / open_gop=0 / weightp=2 / keyint=250 / keyint_min=25 / scenecut=40 / intra_refresh=0 / rc=2pass / mbtree=0 / bitrate=2699 / ratetol=1.0 / qcomp=0.60 / qpmin=0 / qpmax=69 / qpstep=4 / cplxblur=20.0 / qblur=0.5 / ip_ratio=1.40 / pb_ratio=1.30 / aq=1:0.80
Language : Russian
Default : Yes
Forced : No
Audio
ID : 2
Format : AC-3
Format/Info : Audio Coding 3
Mode extension : CM (complete main)
Format settings, Endianness : Big
Codec ID : A_AC3
Duration : 1h 12mn
Bit rate mode : Constant
Bit rate : 448 Kbps
Channel(s) : 6 channels
Channel positions : Front: L C R, Side: L R, LFE
Sampling rate : 48.0 KHz
Bit depth : 16 bits
Compression mode : Lossy
Delay relative to video : 10ms
Stream size : 232 MiB (14%)
Language : Russian
Default : Yes
Forced : No
Menu
00:05:00.000 : :Chapter 01
00:10:00.000 : :Chapter 02
00:15:00.000 : :Chapter 03
00:20:00.000 : :Chapter 04
00:25:00.000 : :Chapter 05
00:30:00.000 : :Chapter 06
00:35:00.000 : :Chapter 07
00:40:00.000 : :Chapter 08
00:45:00.000 : :Chapter 09
00:50:00.000 : :Chapter 10
00:55:00.000 : :Chapter 11
01:00:00.000 : :Chapter 12
-Скриншоты:
       -Время раздачи: С 09:00 до 24:00
Вне форума [Профиль] [ЛС]
Похожие темы
Форум Тема Автор Торрент Отв. Посл. сообщение
./templates/default/images/folder_dl.gif Новинки (HD|DVD|BD|WEB|TV|SAT|PDTV|-Rip) Реинкарнация / Hereditary (Ари Астер) [2018 г., Ужасы, триллер, драма, детектив, WEB-DLRip] DUB | iTunes Theseus
1 | 0

0 | 293

2

2018-08-22 22:25
Theseus Последнее
Показать сообщения:    
Ответить на тему

Текущее время: Сегодня 21:04

Часовой пояс: GMT + 3



Вы не можете начинать темы
Вы не можете отвечать на сообщения
Вы не можете редактировать свои сообщения
Вы не можете удалять свои сообщения
Вы не можете голосовать в опросах
Вы не можете прикреплять файлы к сообщениям
Вы не можете скачивать файлы