Сегодня идет свободное скачивание без начисления Download

Дом, который построил Свифт (1982) DVDRip

Ответить на тему
 
Автор
Сообщение

Omen ®

Стаж: 5 лет 10 месяцев

Сообщений: 184329

Торрент-статистика

Пост 08-Янв-2013 22:32

[Цитировать]

-Дом, который построил Свифт (1982) DVDRip- Оригинальное название: Дом, который построил Свифт
Год выпуска: 1982
Страна: СССР / ТО Экран
Жанр: комедия-
Премьера (мир):
3 ноября 1985 (ТВ)
Режиссер: Марк Захаров
Актеры: Олег Янковский, Александр Абдулов, Владимир Белоусов (III), Евгений Леонов, Марина Игнатова, Александра Захарова, Александр Сирин, Александр Збруев, Николай Караченцов, Татьяна Рудина, Виктор Проскурин, Юрий Астафьев, Виллор Кузнецов, Всеволод Ларионов, Семён Фарада, Юрий Колычев

Описание фильма:
Необычный дом построили английский писатель-сатирик Джонатан Свифт и авторы фильма - Григорий Горин и Марк Захаров. В этом доме мистификаций и розыгрышей зрители знакомятся с его обитателями - лилипутами, Ванессой, Эстер и многими другими, верящими в добро и знающими, что надо за него бороться, ибо жизнь - это все же не театр....-Продолжительность: 01:13:12 + 01:03:26
Качество видео: DVDRip
Видеокодек: XviD
Формат: AVI
Битрейт видео: ~1138 kbps avg
Размер кадра: 640 x 480 (4:3)
Аудиокодек: MP3
Битрейт аудио: 48 kHz, MP3, 2 ch, ~192.00 kbps avg

MediaInfo:

Format : AVI
Format/Info : Audio Video Interleave
File size : 700 MiB
Duration : 1h 13mn
Overall bit rate : 1 337 Kbps
Writing application : VirtualDubMod 1.5.4.1 (build 2178/release)
Writing library : VirtualDubMod build 2178/release
Video
ID : 0
Format : MPEG-4 Visual
Format profile : Advanced Simple@L5
Format settings, BVOP : 1
Format settings, QPel : No
Format settings, GMC : No warppoints
Codec ID : XVID
Codec ID/Hint : XviD
Duration : 1h 13mn
Bit rate : 1 138 Kbps
Width : 640 pixels
Height : 480 pixels
Display aspect ratio : 4:3
Frame rate : 25.000 fps
Color space : YUV
Chroma subsampling : 4:2:0
Bit depth : 8 bits
Scan type : Progressive
Compression mode : Lossy
Bits/(Pixel*Frame) : 0.148
Stream size : 596 MiB (85%)
Writing library : XviD 1.2.0.dev47 (UTC 2006-11-01)
Audio
ID : 1
Format : MPEG Audio
Format version : Version 1
Format profile : Layer 3
Mode : Joint stereo
Mode extension : MS Stereo
Codec ID : 55
Codec ID/Hint : MP3
Duration : 1h 13mn
Bit rate mode : Constant
Bit rate : 192 Kbps
Channel(s) : 2 channels
Sampling rate : 48.0 KHz
Compression mode : Lossy
Stream size : 101 MiB (14%)
Alignment : Aligned on interleaves
Interleave, duration : 80 ms (2.00 video frames)
Interleave, preload duration : 504 ms
Writing library : LAME3.97
Encoding settings : -m j -V 4 -q 2 -lowpass 18.6 -b 192
Language : Russian
Скриншоты:
         
         
24/7
Вне форума [Профиль] [ЛС]
Показать сообщения:    
Ответить на тему

Текущее время: Сегодня 05:18

Часовой пояс: GMT + 3



Вы не можете начинать темы
Вы не можете отвечать на сообщения
Вы не можете редактировать свои сообщения
Вы не можете удалять свои сообщения
Вы не можете голосовать в опросах
Вы не можете прикреплять файлы к сообщениям
Вы не можете скачивать файлы