Сегодня идет свободное скачивание без начисления Download

Шаг навстречу (1975) [H.264] DVDRip

Ответить на тему
 
Автор
Сообщение

Omen ®

Стаж: 5 лет 8 месяцев

Сообщений: 184433

Торрент-статистика

Пост 08-Янв-2013 22:20

[Цитировать]

-Шаг навстречу (1975) [H.264] DVDRip- Русское название: Шаг навстречу
Год выпуска: 1975
Жанр: Комедия
Описание фильма:
Пять лирических новелл («Дочь капитана», «Отец Серафим», «Мясо по-аргентински», «Свадебный марш», «Всего за 30 копеек»).В каждой из пяти новелл фильма свой герой, свой сюжет, свой жанр.Но все они связаны одной идеей: в наш сложный и быстрый век, самое дорогое — это человек, его душа и его чувства, его ранимость и доброта, его стремление любить и быть любимым…
Режиссер: Наум Бирман
Актеры: Людмила Гурченко, Николай Волков, Андрей Попов, Елена Цыплакова, Георгий Вицин, Людмила Иванова, Вера Титова, Евгений Леонов, Елена Соловей, В.Владимирова, С.Морозов, Валентина Телегина, Лев Дуров, Владимир Басов, Валентина Титова, Елена Драпеко, Борис Щербаков, Анатолий Рудаков, Светлана Вадас, Станислав Соколов, Андрей Миронов, Екатерина Васильева, Павел Панков
Продолжительность: 01:13:00

Видеокодек: MPEG-4 AVC/H.264
Битрейт видео: ~1957 Кбит/сек
Размер кадра: 768x576
Качество видео: DVDRip
Аудиокодек: AC3 2.0
Битрейт аудио: 192 Кбит/сек

MediaInfo:

Общее
Уникальный идентификатор : 206989610014649021160004008021659319708 (0x9BB8BFB20A3DB064BF2DD53A7DE17D9C)
Полное имя : H:\!V\Шаг навстречу DVDRip\Шаг навстречу.mkv
Формат : Matroska
Версия формата : Version 4 / Version 2
Размер файла : 1,12 Гбайт
Продолжительность : 1 ч. 13 м.
Общий поток : 2192 Кбит/сек
Дата кодирования : UTC 2010-02-22 21:41:31
Программа кодирования : mkvmerge v5.9.0 ('On The Loose') built on Dec 9 2012 15:37:01
Библиотека кодирования : libebml v1.3.0 + libmatroska v1.4.0
Видео
Идентификатор : 1
Формат : AVC
Формат/Информация : Advanced Video Codec
Профиль формата : [url=mailto:Baseline@L3.1]Baseline@L3.1[/url]
Параметр CABAC формата : Нет
Параметр ReFrames формата : 2 кадра
Параметр GOP формата : M=1, N=12
Режим смешивания : Header stripping
Идентификатор кодека : V_MPEG4/ISO/AVC
Продолжительность : 1 ч. 13 м.
Битрейт : 1957 Кбит/сек
Ширина : 768 пикселей
Высота : 576 пикселей
Соотношение сторон : 4:3
Режим частоты кадров : Постоянный
Частота кадров : 23,976 кадра/сек
Стандарт вещания : NTSC
Цветовое пространство : YUV
Субдискретизация насыщенности : 4:2:0
Битовая глубина : 8 бит
Тип развёртки : Прогрессивная
Бит/(Пиксели*Кадры) : 0.184
Размер потока : 1022 Мбайт (89%)
Язык : Russian
Default : Да
Forced : Нет
Основные цвета : BT.601 NTSC
Характеристики трансфера : BT.601
Коэффициенты матрицы : BT.601
Аудио
Идентификатор : 2
Формат : AC-3
Формат/Информация : Audio Coding 3
Расширение режима : CM (complete main)
Параметр Endianness формата : Big
Режим смешивания : Header stripping
Идентификатор кодека : A_AC3
Продолжительность : 1 ч. 13 м.
Вид битрейта : Постоянный
Битрейт : 192 Кбит/сек
Каналы : 2 канала
Расположение каналов : Front: L R
Частота : 48,0 КГц
Битовая глубина : 16 бит
Метод сжатия : С потерями
Задержка видео : 2 мс.
Размер потока : 100 Мбайт (9%)
Язык : Russian
Default : Да
Forced : Нет
Скриншоты:
         
         
Вне форума [Профиль] [ЛС]
Показать сообщения:    
Ответить на тему

Текущее время: Сегодня 02:12

Часовой пояс: GMT + 3



Вы не можете начинать темы
Вы не можете отвечать на сообщения
Вы не можете редактировать свои сообщения
Вы не можете удалять свои сообщения
Вы не можете голосовать в опросах
Вы не можете прикреплять файлы к сообщениям
Вы не можете скачивать файлы