Сегодня идет свободное скачивание без начисления Download

Хлеб и розы (1960) DVBRip

Ответить на тему
 
Автор
Сообщение

Omen ®

Стаж: 6 лет 1 месяц

Сообщений: 184308

Торрент-статистика

Пост 08-Янв-2013 22:08

[Цитировать]

-Хлеб и розы (1960) DVBRip- Русское название: Хлеб и розы
Год выпуска: 1960
Жанр: Драма
Описание фильма:
Молодой питерский рабочий Гавриил Ивушкин отправился со своими товарищами в алтайскую степь строить коммуну. Там горожане показали беднякам, как надо работать. Холод и голод, борьба с контрреволюцией — все выдержал Гавриил Ивушкин. Но скрыть своего чувства к красавице Любаше Тиуновой, дочери местного кулака, не смог. Любаша тоже полюбила Ивушкина, но многое в нем было для нее новым и непонятным. Их пути разойдутся, но придет время и Любаша все бросит ради того, чтобы быть рядом с Гавриилом.
Режиссер: Федор Филиппов
Актеры: Павел Кадочников, Людмила Касаткина, Александра Завьялова, Семён Морозов, Сергей Калинин, Анатолий Соловьёв, Анатолий Кубацкий, Глеб Глебов, Эдуард Бредун, Леонид Пархоменко, Павел Волков, Александра Данилова, Инна Фёдорова, Клавдия Хабарова, Раднэр Муратов, Сергей Юртайкин, Юрий Дубровин (II), Е. Кушнерайт, Алексей Миронов, Ганс Флёссель
Продолжительность: 01:30:56

Видеокодек: MPEG-2
Битрейт видео: ~4193 Кбит/сек
Размер кадра: 720x576
Качество видео: DVBRip
Аудиокодек: MP2, 2 ch
Битрейт аудио: 192 Кбит/сек

MediaInfo:

Общее
Полное имя : H:\!V\Хлеб и розы\Хлеб и розы(1960).mpg
Формат : MPEG-PS
Размер файла : 2,84 Гбайт
Продолжительность : 1 ч. 30 м.
Режим общего битрейта : Переменный
Общий поток : 4474 Кбит/сек
Библиотека кодирования : (c) 1998-2010 Womble Multimedia, Inc. / MPEG Video Wizard DVD 5.0.0.114 (01/2010) / Apr 20 2010
Видео
Идентификатор : 224 (0xE0)
Формат : MPEG Video
Версия формата : Version 2
Профиль формата : Main@Main
Параметр BVOP формата : Да
Параметр матрицы формата : Выборочная
Параметр GOP формата : M=3, N=12
Продолжительность : 1 ч. 30 м.
Вид битрейта : Переменный
Битрейт : 4193 Кбит/сек
Максимальный битрейт : 15,0 Мбит/сек
Ширина : 720 пикселей
Высота : 576 пикселей
Соотношение сторон : 16:9
Частота кадров : 25,000 кадров/сек
Стандарт вещания : PAL
Цветовое пространство : YUV
Субдискретизация насыщенности : 4:2:0
Битовая глубина : 8 бит
Тип развёртки : Чересстрочная
Порядок развёртки : Верхнее поле первое
Метод сжатия : С потерями
Бит/(Пиксели*Кадры) : 0.404
Размер потока : 2,66 Гбайт (94%)
Выравнивание : (c) 1998-2010 Womble Multimedia, Inc. / MPEG Video Wizard DVD 5.0.0.114 (01/2010) / Apr 20 2010
Заголовок : (c) 1998-2010 Womble Multimedia, Inc. / MPEG Video Wizard DVD 5.0.0.114 (01/2010) / Apr 20 2010
Библиотека кодирования : (c) 1998-2010 Womble Multimedia, Inc. / MPEG Video Wizard DVD 5.0.0.114 (01/2010) / Apr 20 2010
Аудио
Идентификатор : 192 (0xC0)
Формат : MPEG Audio
Версия формата : Version 1
Профиль формата : Layer 2
Продолжительность : 1 ч. 30 м.
Вид битрейта : Постоянный
Битрейт : 192 Кбит/сек
Каналы : 2 канала
Частота : 48,0 КГц
Метод сжатия : С потерями
Размер потока : 125 Мбайт (4%)
Меню
Скриншоты:
         
         
Время раздачи: С 09 до 23:00
Вне форума [Профиль] [ЛС]
Показать сообщения:    
Ответить на тему

Текущее время: Сегодня 02:19

Часовой пояс: GMT + 3



Вы не можете начинать темы
Вы не можете отвечать на сообщения
Вы не можете редактировать свои сообщения
Вы не можете удалять свои сообщения
Вы не можете голосовать в опросах
Вы не можете прикреплять файлы к сообщениям
Вы не можете скачивать файлы