Сегодня идет свободное скачивание без начисления Download

Машина Времени.40 (полная версия) (2010) DVD9

Ответить на тему
 
Автор
Сообщение

Omen ®

Стаж: 5 лет

Сообщений: 190530

Торрент-статистика

Пост 08-Янв-2013 20:59

[Цитировать]

Машина Времени.40 (полная версия) - Оригинальное название: Машина Времени.40 (полная версия)
Год выпуска: 2010
Жанр: Rock
Описание фильма:
11 декабря 2009 года, в день рождения Андрея Макаревича, вопреки всем предрассудкам, группа "МАШИНА ВРЕМЕНИ" отметила свое 40-летие. Этот концерт завершил грандиозный тур по всей России и странам ближнего зарубежья. Песни для торжественного события выбирали поклонники группы путем голосования на официальном сайте "Машины Времени". Под музыку "машинистов" выросли поколения. С ними пела молодежь перестроечных 80-х, они взрывали концертные залы и стадионы в лихие 90-е, они остаются острыми и актуальными в 2000-е. Они не просто любимцы публики. Они - Легенды! Вы держите в руках уникальный диск: радиостанция "Авторадио" и "Sintez Records" с гордостью представляют юбилейное полное издание концерта "Машины Времени".
Режиссер: Герман Садченков
Продолжительность: 03:11:10
Перевод: Отсутствует
Видеокодек: MPEG-2
Битрейт видео: ~3350 kb/s
Размер кадра: 720х576 (4:3)
Качество видео: DVD9
Аудиокодек: PCM
Аудио #1: LPCM, 48 КГц, 2 ch
Аудио #2: AC3, 48 КГц, 6 ch 448Kbit

Треклист:

МАШИНА ВРЕМЕНИ
01. Интро
02. Праздник начинается сейчас / День Рождения
03. Корабли
04. Костер (памяти Александра Варина)
05. Пой
06. Кошка, которая гуляет сама по себе
07. Скворец
08. Он был старше ее
09. Улетай
10. Небо напомнит
11. Эти реки никуда не текут
12. Буги-вуги на потолке
13. Брошенный Богом мир
14. Блюз-Шанхай
15. Марионетки
16. Кого ты хотел удивить
17. Три окна
18. Он играет на похоронах и танцах
19. Разговор в поезде
20. За тех, кто в море
21. Синяя птица
22. Скачки
23. Мой друг (лучше всех играет блюз)
24. Однажды мир прогнется под нас
25. Поворот
26. Свеча
ГОСТИ
01. Воскресение - Флаг над замком
02. Zdob si Zdub - Телега
03. Uma2rman - Свеча
04. Uma2rman - Ты далеко
05. Чайф - Шанхай
06. Чайф - Рок-н-ролл этой ночи
07. Ляпис Трубецкой - Скворец
08. Ляпис Трубецкой - Манифест
09. Максим Леонидов - Письмо
10. Сурганова и Оркестр - Весь мир сошёл с ума
11. Сурганова и Оркестр - Далеко
12. Чиж & Co - Эти реки никуда не текут
13. Чиж & Co - Вот пуля просвистела
14. Галанин и Сукачев - Гимн забору
15. Галанин и Сукачев - А что нам надо
16. Шнур и Рубль - Битва с дураками

MediaInfo:

Общее
Полное имя : P:\MASHINA VREMENI_40\VIDEO_TS\VIDEO_TS.BUP
Формат : DVD Video
Профиль формата : Menu
Размер файла : 12,0 Кбайт
Режим общего битрейта : Переменный
Видео
Идентификатор : 224 (0xE0)
Формат : MPEG Video
Версия формата : Version 2
Вид битрейта : Переменный
Ширина : 720 пикселей
Высота : 576 пикселей
Соотношение сторон : 4:3
Частота кадров : 25,000 кадров/сек
Стандарт вещания : PAL
Метод сжатия : С потерями
Общее
Полное имя : P:\MASHINA VREMENI_40\VIDEO_TS\VIDEO_TS.IFO
Формат : DVD Video
Профиль формата : Menu
Размер файла : 12,0 Кбайт
Режим общего битрейта : Переменный
Видео
Идентификатор : 224 (0xE0)
Формат : MPEG Video
Версия формата : Version 2
Вид битрейта : Переменный
Ширина : 720 пикселей
Высота : 576 пикселей
Соотношение сторон : 4:3
Частота кадров : 25,000 кадров/сек
Стандарт вещания : PAL
Метод сжатия : С потерями
Общее
Полное имя : P:\MASHINA VREMENI_40\VIDEO_TS\VIDEO_TS.VOB
Формат : MPEG-PS
Размер файла : 48,0 Кбайт
Продолжительность : 40 мс.
Режим общего битрейта : Переменный
Общий поток : 9830 Кбит/сек
Видео
Идентификатор : 224 (0xE0)
Формат : MPEG Video
Версия формата : Version 2
Профиль формата : Main@Main
Параметр BVOP формата : Нет
Параметр матрицы формата : По умолчанию
Продолжительность : 40 мс.
Вид битрейта : Переменный
Максимальный битрейт : 9000 Кбит/сек
Ширина : 720 пикселей
Высота : 576 пикселей
Соотношение сторон : 4:3
Частота кадров : 25,000 кадров/сек
Стандарт вещания : PAL
Цветовое пространство : YUV
Субдискретизация насыщенности : 4:2:0
Битовая глубина : 8 бит
Тип развёртки : Прогрессивная
Порядок развёртки : Верхнее поле первое
Метод сжатия : С потерями
Основные цвета : BT.601 PAL
Характеристики трансфера : BT.470 System B, BT.470 System G
Коэффициенты матрицы : BT.601
Меню
Общее
Полное имя : P:\MASHINA VREMENI_40\VIDEO_TS\VTS_01_0.BUP
Формат : DVD Video
Профиль формата : Program
Размер файла : 138 Кбайт
Продолжительность : 3 ч. 11 м.
Режим общего битрейта : Переменный
Общий поток : 99 бит/сек
Видео
Идентификатор : 224 (0xE0)
Формат : MPEG Video
Версия формата : Version 2
Продолжительность : 3 ч. 11 м.
Вид битрейта : Переменный
Ширина : 720 пикселей
Высота : 576 пикселей
Соотношение сторон : 4:3
Частота кадров : 25,000 кадров/сек
Стандарт вещания : PAL
Метод сжатия : С потерями
Аудио #1
Идентификатор : 0 (0x0)
Формат : PCM
Продолжительность : 3 ч. 11 м.
Каналы : 2 канала
Частота : 48,0 КГц
Язык : English
Аудио #2
Идентификатор : 129 (0x81)
Формат : AC-3
Формат/Информация : Audio Coding 3
Продолжительность : 3 ч. 11 м.
Каналы : 6 каналов
Частота : 48,0 КГц
Метод сжатия : С потерями
Язык : English
Меню #1
Продолжительность : 2 м. 11 с.
00:00:00.000 : Chapter 1
00:00:03.000 : Chapter 2
00:00:06.000 : Chapter 3
00:00:09.000 : Chapter 4
00:00:12.000 : Chapter 5
00:00:15.000 : Chapter 6
00:00:18.000 : Chapter 7
00:00:21.000 : Chapter 8
00:00:24.000 : Chapter 9
00:00:27.000 : Chapter 10
00:00:30.000 : Chapter 11
00:00:33.000 : Chapter 12
00:00:36.000 : Chapter 13
00:00:39.000 : Chapter 14
00:00:42.000 : Chapter 15
00:00:45.000 : Chapter 16
00:00:48.000 : Chapter 17
00:00:51.000 : Chapter 18
00:00:54.000 : Chapter 19
00:00:57.000 : Chapter 20
00:01:00.000 : Chapter 21
00:01:03.000 : Chapter 22
00:01:06.000 : Chapter 23
00:01:09.000 : Chapter 24
00:01:12.000 : Chapter 25
00:01:15.000 : Chapter 26
00:01:18.000 : Chapter 27
00:01:21.000 : Chapter 28
00:01:24.000 : Chapter 29
00:01:27.000 : Chapter 30
00:01:30.000 : Chapter 31
00:01:33.000 : Chapter 32
00:01:36.000 : Chapter 33
00:01:39.000 : Chapter 34
List (Audio) : 0
Меню #2
Продолжительность : 3 ч. 11 м.
00:00:00.000 : Chapter 1
01:00:33.000 : Chapter 2
01:01:01.000 : Chapter 3
01:01:15.000 : Chapter 4
01:01:19.000 : Chapter 5
01:01:28.000 : Chapter 6
01:02:00.000 : Chapter 7
01:02:23.000 : Chapter 8
01:02:39.000 : Chapter 9
01:03:10.000 : Chapter 10
01:03:35.000 : Chapter 11
01:04:07.000 : Chapter 12
01:04:47.000 : Chapter 13
01:05:18.000 : Chapter 14
01:05:55.000 : Chapter 15
01:06:01.040 : Chapter 16
01:06:17.040 : Chapter 17
01:06:21.040 : Chapter 18
01:06:52.040 : Chapter 19
01:06:55.640 : Chapter 20
01:07:23.640 : Chapter 21
01:08:02.640 : Chapter 22
01:08:39.640 : Chapter 23
01:08:46.640 : Chapter 24
01:08:54.920 : Chapter 25
01:09:23.920 : Chapter 26
01:09:28.040 : Chapter 27
03:09:32.760 : Chapter 28
03:09:55.760 : Chapter 29
03:10:00.320 : Chapter 30
03:10:04.720 : Chapter 31
03:10:27.720 : Chapter 32
03:10:32.400 : Chapter 33
03:11:01.400 : Chapter 34
03:11:08.400 : Chapter 35
03:11:12.400 : Chapter 36
03:11:50.400 : Chapter 37
03:12:25.400 : Chapter 38
03:12:34.400 : Chapter 39
03:12:43.400 : Chapter 40
03:12:47.400 : Chapter 41
03:13:27.400 : Chapter 42
03:13:39.400 : Chapter 43
List (Audio) : 0 / 1
Меню #3
Общее
Полное имя : P:\MASHINA VREMENI_40\VIDEO_TS\VTS_01_0.IFO
Формат : DVD Video
Профиль формата : Program
Размер файла : 138 Кбайт
Продолжительность : 3 ч. 11 м.
Режим общего битрейта : Переменный
Общий поток : 99 бит/сек
Видео
Идентификатор : 224 (0xE0)
Формат : MPEG Video
Версия формата : Version 2
Продолжительность : 3 ч. 11 м.
Вид битрейта : Переменный
Ширина : 720 пикселей
Высота : 576 пикселей
Соотношение сторон : 4:3
Частота кадров : 25,000 кадров/сек
Стандарт вещания : PAL
Метод сжатия : С потерями
Аудио #1
Идентификатор : 0 (0x0)
Формат : PCM
Продолжительность : 3 ч. 11 м.
Каналы : 2 канала
Частота : 48,0 КГц
Язык : English
Аудио #2
Идентификатор : 129 (0x81)
Формат : AC-3
Формат/Информация : Audio Coding 3
Продолжительность : 3 ч. 11 м.
Каналы : 6 каналов
Частота : 48,0 КГц
Метод сжатия : С потерями
Язык : English
Меню #1
Продолжительность : 2 м. 11 с.
00:00:00.000 : Chapter 1
00:00:03.000 : Chapter 2
00:00:06.000 : Chapter 3
00:00:09.000 : Chapter 4
00:00:12.000 : Chapter 5
00:00:15.000 : Chapter 6
00:00:18.000 : Chapter 7
00:00:21.000 : Chapter 8
00:00:24.000 : Chapter 9
00:00:27.000 : Chapter 10
00:00:30.000 : Chapter 11
00:00:33.000 : Chapter 12
00:00:36.000 : Chapter 13
00:00:39.000 : Chapter 14
00:00:42.000 : Chapter 15
00:00:45.000 : Chapter 16
00:00:48.000 : Chapter 17
00:00:51.000 : Chapter 18
00:00:54.000 : Chapter 19
00:00:57.000 : Chapter 20
00:01:00.000 : Chapter 21
00:01:03.000 : Chapter 22
00:01:06.000 : Chapter 23
00:01:09.000 : Chapter 24
00:01:12.000 : Chapter 25
00:01:15.000 : Chapter 26
00:01:18.000 : Chapter 27
00:01:21.000 : Chapter 28
00:01:24.000 : Chapter 29
00:01:27.000 : Chapter 30
00:01:30.000 : Chapter 31
00:01:33.000 : Chapter 32
00:01:36.000 : Chapter 33
00:01:39.000 : Chapter 34
List (Audio) : 0
Меню #2
Продолжительность : 3 ч. 11 м.
00:00:00.000 : Chapter 1
01:00:33.000 : Chapter 2
01:01:01.000 : Chapter 3
01:01:15.000 : Chapter 4
01:01:19.000 : Chapter 5
01:01:28.000 : Chapter 6
01:02:00.000 : Chapter 7
01:02:23.000 : Chapter 8
01:02:39.000 : Chapter 9
01:03:10.000 : Chapter 10
01:03:35.000 : Chapter 11
01:04:07.000 : Chapter 12
01:04:47.000 : Chapter 13
01:05:18.000 : Chapter 14
01:05:55.000 : Chapter 15
01:06:01.040 : Chapter 16
01:06:17.040 : Chapter 17
01:06:21.040 : Chapter 18
01:06:52.040 : Chapter 19
01:06:55.640 : Chapter 20
01:07:23.640 : Chapter 21
01:08:02.640 : Chapter 22
01:08:39.640 : Chapter 23
01:08:46.640 : Chapter 24
01:08:54.920 : Chapter 25
01:09:23.920 : Chapter 26
01:09:28.040 : Chapter 27
03:09:32.760 : Chapter 28
03:09:55.760 : Chapter 29
03:10:00.320 : Chapter 30
03:10:04.720 : Chapter 31
03:10:27.720 : Chapter 32
03:10:32.400 : Chapter 33
03:11:01.400 : Chapter 34
03:11:08.400 : Chapter 35
03:11:12.400 : Chapter 36
03:11:50.400 : Chapter 37
03:12:25.400 : Chapter 38
03:12:34.400 : Chapter 39
03:12:43.400 : Chapter 40
03:12:47.400 : Chapter 41
03:13:27.400 : Chapter 42
03:13:39.400 : Chapter 43
List (Audio) : 0 / 1
Меню #3
Общее
Полное имя : P:\MASHINA VREMENI_40\VIDEO_TS\VTS_01_0.VOB
Формат : MPEG-PS
Размер файла : 164 Мбайт
Продолжительность : 35 с.
Режим общего битрейта : Переменный
Общий поток : 38,3 Мбит/сек
Видео
Идентификатор : 224 (0xE0)
Формат : MPEG Video
Версия формата : Version 2
Профиль формата : Main@Main
Параметр BVOP формата : Нет
Параметр матрицы формата : По умолчанию
Продолжительность : 40 мс.
Вид битрейта : Переменный
Битрейт : 36,0 Мбит/сек
Максимальный битрейт : 9000 Кбит/сек
Ширина : 720 пикселей
Высота : 576 пикселей
Соотношение сторон : 4:3
Частота кадров : 25,000 кадров/сек
Стандарт вещания : PAL
Цветовое пространство : YUV
Субдискретизация насыщенности : 4:2:0
Битовая глубина : 8 бит
Тип развёртки : Прогрессивная
Порядок развёртки : Верхнее поле первое
Метод сжатия : С потерями
Бит/(Пиксели*Кадры) : 3.475
Размер потока : 176 Кбайт (0%)
Основные цвета : BT.601 PAL
Характеристики трансфера : BT.470 System B, BT.470 System G
Коэффициенты матрицы : BT.601
Аудио
Идентификатор : 189 (0xBD)-160 (0xA0)
Формат : PCM
Параметр Endianness формата : Big
Параметр Sign формата : Signed
Режим смешивания : DVD-Video
Продолжительность : 35 с.
Вид битрейта : Постоянный
Битрейт : 1536 Кбит/сек
Каналы : 2 канала
Частота : 48,0 КГц
Битовая глубина : 16 бит
Размер потока : 6,58 Мбайт (4%)
Текст
Идентификатор : 189 (0xBD)-32 (0x20)
Формат : RLE
Формат/Информация : Run-length encoding
Режим смешивания : DVD-Video
Меню
Общее
Полное имя : P:\MASHINA VREMENI_40\VIDEO_TS\VTS_01_1.VOB
Формат : MPEG-PS
Размер файла : 1000 Мбайт
Продолжительность : 24 м.
Режим общего битрейта : Переменный
Общий поток : 5600 Кбит/сек
Видео
Идентификатор : 224 (0xE0)
Формат : MPEG Video
Версия формата : Version 2
Профиль формата : Main@Main
Параметр BVOP формата : Нет
Параметр матрицы формата : По умолчанию
Параметр GOP формата : Variable
Продолжительность : 24 м.
Вид битрейта : Переменный
Битрейт : 3504 Кбит/сек
Максимальный битрейт : 9000 Кбит/сек
Ширина : 720 пикселей
Высота : 576 пикселей
Соотношение сторон : 4:3
Частота кадров : 25,000 кадров/сек
Стандарт вещания : PAL
Цветовое пространство : YUV
Субдискретизация насыщенности : 4:2:0
Битовая глубина : 8 бит
Тип развёртки : Прогрессивная
Порядок развёртки : Верхнее поле первое
Метод сжатия : С потерями
Бит/(Пиксели*Кадры) : 0.338
Размер потока : 626 Мбайт (63%)
Основные цвета : BT.601 PAL
Характеристики трансфера : BT.470 System B, BT.470 System G
Коэффициенты матрицы : BT.601
Аудио #1
Идентификатор : 189 (0xBD)-160 (0xA0)
Формат : PCM
Параметр Endianness формата : Big
Параметр Sign формата : Signed
Режим смешивания : DVD-Video
Продолжительность : 24 м.
Вид битрейта : Постоянный
Битрейт : 1536 Кбит/сек
Каналы : 2 канала
Частота : 48,0 КГц
Битовая глубина : 16 бит
Размер потока : 274 Мбайт (27%)
Аудио #2
Идентификатор : 189 (0xBD)-129 (0x81)
Формат : AC-3
Формат/Информация : Audio Coding 3
Расширение режима : CM (complete main)
Параметр Endianness формата : Big
Режим смешивания : DVD-Video
Продолжительность : 7 с. 72 мс.
Вид битрейта : Постоянный
Битрейт : 448 Кбит/сек
Каналы : 6 каналов
Расположение каналов : Front: L C R, Side: L R, LFE
Частота : 48,0 КГц
Битовая глубина : 16 бит
Метод сжатия : С потерями
Размер потока : 387 Кбайт (0%)
Меню
Общее
Полное имя : P:\MASHINA VREMENI_40\VIDEO_TS\VTS_01_2.VOB
Формат : MPEG-PS
Размер файла : 1000 Мбайт
Продолжительность : 25 м.
Режим общего битрейта : Переменный
Общий поток : 5442 Кбит/сек
Видео
Идентификатор : 224 (0xE0)
Формат : MPEG Video
Версия формата : Version 2
Профиль формата : Main@Main
Параметр BVOP формата : Да
Параметр матрицы формата : По умолчанию
Параметр GOP формата : M=3, N=12
Продолжительность : 25 м.
Вид битрейта : Переменный
Битрейт : 3350 Кбит/сек
Максимальный битрейт : 4000 Кбит/сек
Ширина : 720 пикселей
Высота : 576 пикселей
Соотношение сторон : 4:3
Частота кадров : 25,000 кадров/сек
Стандарт вещания : PAL
Цветовое пространство : YUV
Субдискретизация насыщенности : 4:2:0
Битовая глубина : 8 бит
Тип развёртки : Прогрессивная
Метод сжатия : С потерями
Бит/(Пиксели*Кадры) : 0.323
Размер потока : 615 Мбайт (62%)
Аудио #1
Идентификатор : 189 (0xBD)-129 (0x81)
Формат : AC-3
Формат/Информация : Audio Coding 3
Расширение режима : CM (complete main)
Параметр Endianness формата : Big
Режим смешивания : DVD-Video
Продолжительность : 25 м.
Вид битрейта : Постоянный
Битрейт : 448 Кбит/сек
Каналы : 6 каналов
Расположение каналов : Front: L C R, Side: L R, LFE
Частота : 48,0 КГц
Битовая глубина : 16 бит
Метод сжатия : С потерями
Задержка видео : -304 мс.
Размер потока : 82,3 Мбайт (8%)
Аудио #2
Идентификатор : 189 (0xBD)-160 (0xA0)
Формат : PCM
Параметр Endianness формата : Big
Параметр Sign формата : Signed
Режим смешивания : DVD-Video
Продолжительность : 25 м.
Вид битрейта : Постоянный
Битрейт : 1536 Кбит/сек
Каналы : 2 канала
Частота : 48,0 КГц
Битовая глубина : 16 бит
Задержка видео : -347 мс.
Размер потока : 282 Мбайт (28%)
Меню
Общее
Полное имя : P:\MASHINA VREMENI_40\VIDEO_TS\VTS_01_3.VOB
Формат : MPEG-PS
Размер файла : 1000 Мбайт
Продолжительность : 25 м.
Режим общего битрейта : Переменный
Общий поток : 5439 Кбит/сек
Видео
Идентификатор : 224 (0xE0)
Формат : MPEG Video
Версия формата : Version 2
Профиль формата : Main@Main
Параметр BVOP формата : Да
Параметр матрицы формата : По умолчанию
Параметр GOP формата : M=3, N=12
Продолжительность : 25 м.
Вид битрейта : Переменный
Битрейт : 3346 Кбит/сек
Максимальный битрейт : 4000 Кбит/сек
Ширина : 720 пикселей
Высота : 576 пикселей
Соотношение сторон : 4:3
Частота кадров : 25,000 кадров/сек
Стандарт вещания : PAL
Цветовое пространство : YUV
Субдискретизация насыщенности : 4:2:0
Битовая глубина : 8 бит
Тип развёртки : Прогрессивная
Метод сжатия : С потерями
Бит/(Пиксели*Кадры) : 0.323
Размер потока : 615 Мбайт (62%)
Аудио #1
Идентификатор : 189 (0xBD)-129 (0x81)
Формат : AC-3
Формат/Информация : Audio Coding 3
Расширение режима : CM (complete main)
Параметр Endianness формата : Big
Режим смешивания : DVD-Video
Продолжительность : 25 м.
Вид битрейта : Постоянный
Битрейт : 448 Кбит/сек
Каналы : 6 каналов
Расположение каналов : Front: L C R, Side: L R, LFE
Частота : 48,0 КГц
Битовая глубина : 16 бит
Метод сжатия : С потерями
Задержка видео : -272 мс.
Размер потока : 82,4 Мбайт (8%)
Аудио #2
Идентификатор : 189 (0xBD)-160 (0xA0)
Формат : PCM
Параметр Endianness формата : Big
Параметр Sign формата : Signed
Режим смешивания : DVD-Video
Продолжительность : 25 м.
Вид битрейта : Постоянный
Битрейт : 1536 Кбит/сек
Каналы : 2 канала
Частота : 48,0 КГц
Битовая глубина : 16 бит
Задержка видео : -340 мс.
Размер потока : 282 Мбайт (28%)
Меню
Общее
Полное имя : P:\MASHINA VREMENI_40\VIDEO_TS\VTS_01_4.VOB
Формат : MPEG-PS
Размер файла : 1000 Мбайт
Продолжительность : 25 м.
Режим общего битрейта : Переменный
Общий поток : 5441 Кбит/сек
Видео
Идентификатор : 224 (0xE0)
Формат : MPEG Video
Версия формата : Version 2
Профиль формата : Main@Main
Параметр BVOP формата : Да
Параметр матрицы формата : По умолчанию
Параметр GOP формата : M=3, N=12
Продолжительность : 25 м.
Вид битрейта : Переменный
Битрейт : 3349 Кбит/сек
Максимальный битрейт : 4000 Кбит/сек
Ширина : 720 пикселей
Высота : 576 пикселей
Соотношение сторон : 4:3
Частота кадров : 25,000 кадров/сек
Стандарт вещания : PAL
Цветовое пространство : YUV
Субдискретизация насыщенности : 4:2:0
Битовая глубина : 8 бит
Тип развёртки : Прогрессивная
Метод сжатия : С потерями
Бит/(Пиксели*Кадры) : 0.323
Размер потока : 615 Мбайт (62%)
Аудио #1
Идентификатор : 189 (0xBD)-129 (0x81)
Формат : AC-3
Формат/Информация : Audio Coding 3
Расширение режима : CM (complete main)
Параметр Endianness формата : Big
Режим смешивания : DVD-Video
Продолжительность : 25 м.
Вид битрейта : Постоянный
Битрейт : 448 Кбит/сек
Каналы : 6 каналов
Расположение каналов : Front: L C R, Side: L R, LFE
Частота : 48,0 КГц
Битовая глубина : 16 бит
Метод сжатия : С потерями
Задержка видео : -272 мс.
Размер потока : 82,3 Мбайт (8%)
Аудио #2
Идентификатор : 189 (0xBD)-160 (0xA0)
Формат : PCM
Параметр Endianness формата : Big
Параметр Sign формата : Signed
Режим смешивания : DVD-Video
Продолжительность : 25 м.
Вид битрейта : Постоянный
Битрейт : 1536 Кбит/сек
Каналы : 2 канала
Частота : 48,0 КГц
Битовая глубина : 16 бит
Задержка видео : -342 мс.
Размер потока : 282 Мбайт (28%)
Меню
Общее
Полное имя : P:\MASHINA VREMENI_40\VIDEO_TS\VTS_01_5.VOB
Формат : MPEG-PS
Размер файла : 1000 Мбайт
Продолжительность : 25 м.
Режим общего битрейта : Переменный
Общий поток : 5392 Кбит/сек
Видео
Идентификатор : 224 (0xE0)
Формат : MPEG Video
Версия формата : Version 2
Профиль формата : Main@Main
Параметр BVOP формата : Да
Параметр матрицы формата : По умолчанию
Параметр GOP формата : M=3, N=12
Продолжительность : 25 м.
Вид битрейта : Переменный
Битрейт : 3301 Кбит/сек
Максимальный битрейт : 4000 Кбит/сек
Ширина : 720 пикселей
Высота : 576 пикселей
Соотношение сторон : 4:3
Частота кадров : 25,000 кадров/сек
Стандарт вещания : PAL
Цветовое пространство : YUV
Субдискретизация насыщенности : 4:2:0
Битовая глубина : 8 бит
Тип развёртки : Прогрессивная
Метод сжатия : С потерями
Бит/(Пиксели*Кадры) : 0.318
Размер потока : 612 Мбайт (61%)
Аудио #1
Идентификатор : 189 (0xBD)-129 (0x81)
Формат : AC-3
Формат/Информация : Audio Coding 3
Расширение режима : CM (complete main)
Параметр Endianness формата : Big
Режим смешивания : DVD-Video
Продолжительность : 25 м.
Вид битрейта : Постоянный
Битрейт : 448 Кбит/сек
Каналы : 6 каналов
Расположение каналов : Front: L C R, Side: L R, LFE
Частота : 48,0 КГц
Битовая глубина : 16 бит
Метод сжатия : С потерями
Задержка видео : -304 мс.
Размер потока : 83,1 Мбайт (8%)
Аудио #2
Идентификатор : 189 (0xBD)-160 (0xA0)
Формат : PCM
Параметр Endianness формата : Big
Параметр Sign формата : Signed
Режим смешивания : DVD-Video
Продолжительность : 25 м.
Вид битрейта : Постоянный
Битрейт : 1536 Кбит/сек
Каналы : 2 канала
Частота : 48,0 КГц
Битовая глубина : 16 бит
Задержка видео : -345 мс.
Размер потока : 285 Мбайт (28%)
Меню
Общее
Полное имя : P:\MASHINA VREMENI_40\VIDEO_TS\VTS_01_6.VOB
Формат : MPEG-PS
Размер файла : 1000 Мбайт
Продолжительность : 25 м.
Режим общего битрейта : Переменный
Общий поток : 5460 Кбит/сек
Видео
Идентификатор : 224 (0xE0)
Формат : MPEG Video
Версия формата : Version 2
Профиль формата : Main@Main
Параметр BVOP формата : Да
Параметр матрицы формата : По умолчанию
Параметр GOP формата : M=3, N=12
Продолжительность : 25 м.
Вид битрейта : Переменный
Битрейт : 3367 Кбит/сек
Максимальный битрейт : 4000 Кбит/сек
Ширина : 720 пикселей
Высота : 576 пикселей
Соотношение сторон : 4:3
Частота кадров : 25,000 кадров/сек
Стандарт вещания : PAL
Цветовое пространство : YUV
Субдискретизация насыщенности : 4:2:0
Битовая глубина : 8 бит
Тип развёртки : Прогрессивная
Метод сжатия : С потерями
Бит/(Пиксели*Кадры) : 0.325
Размер потока : 617 Мбайт (62%)
Аудио #1
Идентификатор : 189 (0xBD)-129 (0x81)
Формат : AC-3
Формат/Информация : Audio Coding 3
Расширение режима : CM (complete main)
Параметр Endianness формата : Big
Режим смешивания : DVD-Video
Продолжительность : 25 м.
Вид битрейта : Постоянный
Битрейт : 448 Кбит/сек
Каналы : 6 каналов
Расположение каналов : Front: L C R, Side: L R, LFE
Частота : 48,0 КГц
Битовая глубина : 16 бит
Метод сжатия : С потерями
Задержка видео : -272 мс.
Размер потока : 82,1 Мбайт (8%)
Аудио #2
Идентификатор : 189 (0xBD)-160 (0xA0)
Формат : PCM
Параметр Endianness формата : Big
Параметр Sign формата : Signed
Режим смешивания : DVD-Video
Продолжительность : 25 м.
Вид битрейта : Постоянный
Битрейт : 1536 Кбит/сек
Каналы : 2 канала
Частота : 48,0 КГц
Битовая глубина : 16 бит
Задержка видео : -349 мс.
Размер потока : 281 Мбайт (28%)
Меню
Общее
Полное имя : P:\MASHINA VREMENI_40\VIDEO_TS\VTS_01_7.VOB
Формат : MPEG-PS
Размер файла : 1000 Мбайт
Продолжительность : 25 м.
Режим общего битрейта : Переменный
Общий поток : 5408 Кбит/сек
Видео
Идентификатор : 224 (0xE0)
Формат : MPEG Video
Версия формата : Version 2
Профиль формата : Main@Main
Параметр BVOP формата : Да
Параметр матрицы формата : По умолчанию
Параметр GOP формата : M=3, N=12
Продолжительность : 25 м.
Вид битрейта : Переменный
Битрейт : 3317 Кбит/сек
Максимальный битрейт : 4000 Кбит/сек
Ширина : 720 пикселей
Высота : 576 пикселей
Соотношение сторон : 4:3
Частота кадров : 25,000 кадров/сек
Стандарт вещания : PAL
Цветовое пространство : YUV
Субдискретизация насыщенности : 4:2:0
Битовая глубина : 8 бит
Тип развёртки : Прогрессивная
Метод сжатия : С потерями
Бит/(Пиксели*Кадры) : 0.320
Размер потока : 613 Мбайт (61%)
Аудио #1
Идентификатор : 189 (0xBD)-129 (0x81)
Формат : AC-3
Формат/Информация : Audio Coding 3
Расширение режима : CM (complete main)
Параметр Endianness формата : Big
Режим смешивания : DVD-Video
Продолжительность : 25 м.
Вид битрейта : Постоянный
Битрейт : 448 Кбит/сек
Каналы : 6 каналов
Расположение каналов : Front: L C R, Side: L R, LFE
Частота : 48,0 КГц
Битовая глубина : 16 бит
Метод сжатия : С потерями
Задержка видео : -272 мс.
Размер потока : 82,8 Мбайт (8%)
Аудио #2
Идентификатор : 189 (0xBD)-160 (0xA0)
Формат : PCM
Параметр Endianness формата : Big
Параметр Sign формата : Signed
Режим смешивания : DVD-Video
Продолжительность : 25 м.
Вид битрейта : Постоянный
Битрейт : 1536 Кбит/сек
Каналы : 2 канала
Частота : 48,0 КГц
Битовая глубина : 16 бит
Задержка видео : -342 мс.
Размер потока : 284 Мбайт (28%)
Меню
Общее
Полное имя : P:\MASHINA VREMENI_40\VIDEO_TS\VTS_01_8.VOB
Формат : MPEG-PS
Размер файла : 468 Мбайт
Продолжительность : 11 м.
Режим общего битрейта : Переменный
Общий поток : 5573 Кбит/сек
Видео
Идентификатор : 224 (0xE0)
Формат : MPEG Video
Версия формата : Version 2
Профиль формата : Main@Main
Параметр BVOP формата : Да
Параметр матрицы формата : По умолчанию
Параметр GOP формата : M=3, N=12
Продолжительность : 11 м.
Вид битрейта : Переменный
Битрейт : 3479 Кбит/сек
Максимальный битрейт : 4000 Кбит/сек
Ширина : 720 пикселей
Высота : 576 пикселей
Соотношение сторон : 4:3
Частота кадров : 25,000 кадров/сек
Стандарт вещания : PAL
Цветовое пространство : YUV
Субдискретизация насыщенности : 4:2:0
Битовая глубина : 8 бит
Тип развёртки : Прогрессивная
Метод сжатия : С потерями
Бит/(Пиксели*Кадры) : 0.336
Размер потока : 292 Мбайт (62%)
Аудио #1
Идентификатор : 189 (0xBD)-129 (0x81)
Формат : AC-3
Формат/Информация : Audio Coding 3
Расширение режима : CM (complete main)
Параметр Endianness формата : Big
Режим смешивания : DVD-Video
Продолжительность : 11 м.
Вид битрейта : Постоянный
Битрейт : 448 Кбит/сек
Каналы : 6 каналов
Расположение каналов : Front: L C R, Side: L R, LFE
Частота : 48,0 КГц
Битовая глубина : 16 бит
Метод сжатия : С потерями
Задержка видео : -272 мс.
Размер потока : 37,6 Мбайт (8%)
Аудио #2
Идентификатор : 189 (0xBD)-160 (0xA0)
Формат : PCM
Параметр Endianness формата : Big
Параметр Sign формата : Signed
Режим смешивания : DVD-Video
Продолжительность : 11 м.
Вид битрейта : Постоянный
Битрейт : 1536 Кбит/сек
Каналы : 2 канала
Частота : 48,0 КГц
Битовая глубина : 16 бит
Задержка видео : -345 мс.
Размер потока : 129 Мбайт (28%)
Меню
Скриншоты:
     
     
Вне форума [Профиль] [ЛС]

uschakov.yura

Пол:

Стаж: 5 лет 6 месяцев

Сообщений: 668

Откуда: Рыбинск Ярославской области

Торрент-статистика

Пост 21-Ноя-2013 03:50 (спустя 10 месяцев 12 дней)

[Цитировать]

Я познакомился с творчеством Андрея Макаревича в середине 70-х, он ещё был студентом архитектурного института, а я студентом авиациоонного в Москве на концерте, с интересом смотрел его рисунки.

_________________
uschakov.yura
Вне форума [Профиль] [ЛС]
Похожие темы
Форум Тема Автор Торрент Отв. Посл. сообщение
./templates/default/images/folder_dl.gif Компьютерная литература Луис Педро Коэльо, Вилли Ричард - Построение систем машинного обучения на языке Python [2016, PDF, RUS] Omen
1 | 0

0 | 298

3

2016-02-07 21:00
Omen Последнее
./templates/default/images/folder_dl.gif Обучающее видео Юрьева О.В. | Работа на машине SILVER REED SK - 280/SRP 60N (2009) [ISO] XP1971
1 | 0

0 | 14229

0

2017-08-05 19:08
XP1971 Последнее
./templates/default/images/folder_dl.gif Компьютерная литература Дж. Вандер Плас | Python для сложных задач наука о данных и машинное обучение (2018) [PDF, EPUB] }{@R0N
1 | 0

0 | 309

5

2017-10-14 17:06
}{@R0N Последнее
Показать сообщения:    
Ответить на тему

Текущее время: Сегодня 20:50

Часовой пояс: GMT + 3



Вы не можете начинать темы
Вы не можете отвечать на сообщения
Вы не можете редактировать свои сообщения
Вы не можете удалять свои сообщения
Вы не можете голосовать в опросах
Вы не можете прикреплять файлы к сообщениям
Вы не можете скачивать файлы