Сегодня идет свободное скачивание без начисления Download

Симпсоны / The Simpsons / Сезон: 24 / Серии: 2-8 (22) (Мэтт Гроунинг / Matt Groening) [2012, Мультфильм, комедия, WEB-DL 1080p] MVO (VO-production) + Original + Rus Subs (allsimpsons) & Eng Subs

Ответить на тему
 
Автор
Сообщение

Omen ®

Стаж: 4 года 10 месяцев

Сообщений: 190643

Торрент-статистика

Пост 08-Янв-2013 14:30

[Цитировать]

-Симпсоны / The Simpsons- Страна: США
Жанр: Мультфильм, комедия
Продолжительность: ~00:21:00
Год выпуска: 2012
Перевод: Профессиональный (многоголосый закадровый) VO-production
Cубтитры: русские (allsimpsons) (2-5 серии!), английские
Режиссёр: Мэтт Гроунинг / Matt Groening
Роли озвучивали: Дэн Кастелланета, Джули Кавнер, Нэнси Картрайт, Ярдли Смит, Гарри Ширер, Хэнк Азария, Памела Хейден, Тресс МакНилл, Карл Видерготт, Мэгги Росвэлл и др.
Описание: Симпсоны живут в вымышленном городе Спрингфилд, со своим обществом и историей. Гомер - отец семейства, который дает плохие советы и работает инспектором безопасности на атомной электростанции; Мардж - любящая мать и жена, старается сохранить спокойствие в семье; Барт - 10 летний хулиган; Лиза - философский 8-летний ребенок; и Мэгги - младенец, который общается посредством соски.
Список серий:
1. ------------------------------
2. Treehouse of Horror XXIII - Oct. 7, 2012
3. Adventures in Baby-Getting - Nov. 4, 2012
4. Gone Abie Gone - Nov. 11, 2012
5. Penny-Wiseguys - Nov. 18, 2012
6. A Tree Grows in Springfield - Nov. 25, 2012
7. The Day the Earth Stood Cool - Dec. 9, 2012
8. To Cur with Love - Dec. 16, 2012
Ссылка на предыдущие и альтернативные раздачи
Качество: WEB-DL 1080p Sample
Формат: MKV
Видео: AVC x264 1912x1072p 23,976fps ~5200kbps 0.103b/p
Аудио 2 : AC3 48Hz 2ch 192kbps [RUS]
Аудио: AC3 48Hz 6ch 384kbps [ENG]
Субтитры: RUS, ENG

Подробные технические данные

GeneralUnique ID : 250873843623728226305531090158461504719 (0xBCBC8B76095FFD89B2E6F97D9631CCCF)Complete name : E:\VIDEOS\The Simpsons\Season 24 [MVO VO-Production + Original + SUB] WEB-DL 1080p\The.Simpsons.S24E08.To.Cur.With.Love.1080p.WEB-DL.DD5.1.H264-BS666.mkvFormat : MatroskaFormat version : Version 4 / Version 2File size : 872 MiBDuration : 21mn 10sOverall bit rate : 5 760 KbpsEncoded date : UTC 2010-02-22 21:41:31Writing application : mkvmerge v5.9.0 ('On The Loose') built on Dec 9 2012 15:37:01Writing library : libebml v1.3.0 + libmatroska v1.4.0
VideoID : 1Format : AVCFormat/Info : Advanced Video CodecFormat profile : High@L4.0Format settings, CABAC : YesFormat settings, ReFrames : 4 framesCodec ID : V_MPEG4/ISO/AVCDuration : 21mn 10sBit rate : 5 070 KbpsWidth : 1 912 pixelsHeight : 1 072 pixelsDisplay aspect ratio : 16:9Frame rate mode : ConstantFrame rate : 23.976 fpsColor space : YUVChroma subsampling : 4:2:0Bit depth : 8 bitsScan type : ProgressiveBits/(Pixel*Frame) : 0.103Stream size : 768 MiB (88%)Language : EnglishDefault : YesForced : YesColor primaries : BT.709Transfer characteristics : BT.709Matrix coefficients : BT.709
Audio #1ID : 2Format : AC-3Format/Info : Audio Coding 3Mode extension : CM (complete main)Format settings, Endianness : BigCodec ID : A_AC3Duration : 21mn 10sBit rate mode : ConstantBit rate : 192 KbpsChannel(s) : 2 channelsChannel positions : Front: L RSampling rate : 48.0 KHzBit depth : 16 bitsCompression mode : LossyDelay relative to video : 16msStream size : 29.1 MiB (3%)Language : RussianDefault : YesForced : Yes
Audio #2ID : 3Format : AC-3Format/Info : Audio Coding 3Mode extension : CM (complete main)Format settings, Endianness : BigCodec ID : A_AC3Duration : 21mn 10sBit rate mode : ConstantBit rate : 384 KbpsChannel(s) : 6 channelsChannel positions : Front: L C R, Side: L R, LFESampling rate : 48.0 KHzBit depth : 16 bitsCompression mode : LossyDelay relative to video : 16msStream size : 58.1 MiB (7%)Language : EnglishDefault : NoForced : No
TextID : 4Format : UTF-8Codec ID : S_TEXT/UTF8Codec ID/Info : UTF-8 Plain TextLanguage : EnglishDefault : NoForced : No

Скриншоты

Вне форума [Профиль] [ЛС]
Показать сообщения:    
Ответить на тему

Текущее время: Сегодня 09:41

Часовой пояс: GMT + 3



Вы не можете начинать темы
Вы не можете отвечать на сообщения
Вы не можете редактировать свои сообщения
Вы не можете удалять свои сообщения
Вы не можете голосовать в опросах
Вы не можете прикреплять файлы к сообщениям
Вы не можете скачивать файлы