Сегодня идет свободное скачивание без начисления Download

Симпсоны / The Simpsons / Сезон: 15 / Серии: 1 (22) (Мэтт Гроунинг / Matt Groening) [2003 г., Приключения, комедия, сатира., BDRip l 720p] DVO (Кипарис) + UKR (Пилот) + Original + Sub (Eng)

Ответить на тему
 
Автор
Сообщение

Omen ®

Стаж: 5 лет

Сообщений: 190529

Торрент-статистика

Пост 08-Янв-2013 14:30

[Цитировать]

- Оригинальное название: The Simpsons
Русское название: Симпсоны
Год выпуска: 2003
Страна: США
Жанр: Приключения, комедия, сатира
Продолжительность: 20 минут (серия)
Перевод:
  • Профессиональный (двухголосый, закадровый) студия Кипарис по заказу REN-TV,
    Субтитры: есть (английские)-Производство: FOX
    Режиссер: Мэтт Гроунинг / Matt Groening-Роли озвучивали: Дэн Кастелланета, Джули Кавнер, Нэнси Картрайт, Ярдли Смит, Гарри Ширер, Хэнк Азария, Памела Хейден, Тресс МакНилл, Карл Видерготт, Мэгги Росвэлл и др.-Описание: Симпсоны живут в вымышленном городе Спрингфилд, со своим обществом и историей. Гомер - отец семейства, который дает плохие советы и работает инспектором безопасности на атомной электростанции; Мардж - любящая мать и жена, старается сохранить спокойствие в семье; Барт - 10 летний хулиган; Лиза - философский 8-летний ребенок; и Мэгги - младенец, который общается посредством соски.- -Спасибо ALEKS KV, littleua за звук, CtrlHD за рип и мне за синхронизацию дорожек.-Качество: BDRip 720p
    Формат: MKV
    Видео кодек: h264
    Аудио кодек: AC3
    Видео: MPEG4 Video (H264) 960x720 23.976fps ~2000Kbps
    Аудио:
    • русская: Dolby AC3 48000Hz stereo 192Kbps,
    • украинская: Dolby AC3 48000Hz stereo 192Kbps,
    • английская: Dolby AC3 48000Hz 6ch 384Kbps
    Скриншоты:
    -

    Список серий

    15 сезон (2003 год):
    01. Treehouse of Horror XIV

    Media Info

    Код:
    General
    Unique ID                                : 186739657926885863003305119651628879414 (0x8C7CBFF97C604C59A40B365259E08E36)
    Complete name                            : E:\HD Video\The Simpsons. 15 season (BDRip l 720p l SERGOLEONE)\01. Treehouse of Horror XIV.mkv
    Format                                   : Matroska
    Format version                           : Version 1
    File size                                : 378 MiB
    Duration                                 : 22mn 1s
    Overall bit rate                         : 2 399 Kbps
    Movie name                               : The Simpsons The Complete Fifteenth Season Disc 1
    Encoded date                             : UTC 2013-01-03 19:24:45
    Writing application                      : mkvmerge v2.3.0 ('Freak U') built on Sep  8 2008 18:32:16
    Writing library                          : libebml v0.7.7 + libmatroska v0.8.1
    Video
    ID                                       : 1
    Format                                   : AVC
    Format/Info                              : Advanced Video Codec
    Format profile                           : High@L3.1
    Format settings, CABAC                   : Yes
    Format settings, ReFrames                : 5 frames
    Codec ID                                 : V_MPEG4/ISO/AVC
    Duration                                 : 22mn 1s
    Width                                    : 960 pixels
    Height                                   : 720 pixels
    Display aspect ratio                     : 4:3
    Frame rate mode                          : Constant
    Frame rate                               : 23.976 fps
    Color space                              : YUV
    Chroma subsampling                       : 4:2:0
    Bit depth                                : 8 bits
    Scan type                                : Progressive
    Writing library                          : x264 core 129 r2230 1cffe9f
    Encoding settings                        : cabac=1 / ref=5 / deblock=1:-3:-3 / analyse=0x3:0x133 / me=tesa / subme=10 / psy=0 / mixed_ref=1 / me_range=24 / chroma_me=1 / trellis=2 / 8x8dct=1 / cqm=0 / deadzone=21,11 / fast_pskip=0 / chroma_qp_offset=-2 / threads=3 / lookahead_threads=1 / sliced_threads=0 / nr=0 / decimate=1 / interlaced=0 / bluray_compat=0 / constrained_intra=0 / bframes=9 / b_pyramid=2 / b_adapt=2 / b_bias=0 / direct=1 / weightb=1 / open_gop=0 / weightp=2 / keyint=240 / keyint_min=23 / scenecut=40 / intra_refresh=0 / rc=crf / mbtree=0 / crf=17.5 / qcomp=0.60 / qpmin=0 / qpmax=69 / qpstep=4 / ip_ratio=1.40 / pb_ratio=1.30 / aq=2:0.60
    Language                                 : English
    Default                                  : Yes
    Forced                                   : No
    Audio #1
    ID                                       : 2
    Format                                   : AC-3
    Format/Info                              : Audio Coding 3
    Mode extension                           : CM (complete main)
    Format settings, Endianness              : Big
    Codec ID                                 : A_AC3
    Duration                                 : 22mn 1s
    Bit rate mode                            : Constant
    Bit rate                                 : 192 Kbps
    Channel(s)                               : 2 channels
    Channel positions                        : Front: L R
    Sampling rate                            : 48.0 KHz
    Bit depth                                : 16 bits
    Compression mode                         : Lossy
    Stream size                              : 30.3 MiB (8%)
    Title                                    : REN-TV (Кипарис)
    Language                                 : Russian
    Default                                  : Yes
    Forced                                   : No
    Audio #2
    ID                                       : 3
    Format                                   : AC-3
    Format/Info                              : Audio Coding 3
    Mode extension                           : CM (complete main)
    Format settings, Endianness              : Big
    Codec ID                                 : A_AC3
    Duration                                 : 22mn 1s
    Bit rate mode                            : Constant
    Bit rate                                 : 192 Kbps
    Channel(s)                               : 2 channels
    Channel positions                        : Front: L R
    Sampling rate                            : 48.0 KHz
    Bit depth                                : 16 bits
    Compression mode                         : Lossy
    Stream size                              : 30.3 MiB (8%)
    Title                                    : M1 (Пилот)
    Language                                 : Ukrainian
    Default                                  : No
    Forced                                   : No
    Audio #3
    ID                                       : 4
    Format                                   : AC-3
    Format/Info                              : Audio Coding 3
    Mode extension                           : CM (complete main)
    Format settings, Endianness              : Big
    Codec ID                                 : A_AC3
    Duration                                 : 22mn 1s
    Bit rate mode                            : Constant
    Bit rate                                 : 640 Kbps
    Channel(s)                               : 6 channels
    Channel positions                        : Front: L C R, Side: L R, LFE
    Sampling rate                            : 48.0 KHz
    Bit depth                                : 16 bits
    Compression mode                         : Lossy
    Stream size                              : 101 MiB (27%)
    Title                                    : Original
    Language                                 : English
    Default                                  : No
    Forced                                   : No
    Audio #4
    ID                                       : 5
    Format                                   : AAC
    Format/Info                              : Advanced Audio Codec
    Format profile                           : HE-AAC / LC
    Codec ID                                 : A_AAC
    Duration                                 : 22mn 1s
    Channel(s)                               : 2 channels
    Channel positions                        : Front: L R
    Sampling rate                            : 48.0 KHz / 24.0 KHz
    Compression mode                         : Lossy
    Delay relative to video                  : 31ms
    Title                                    : Commentary
    Language                                 : English
    Default                                  : No
    Forced                                   : No
    Text
    ID                                       : 6
    Format                                   : PGS
    Codec ID                                 : S_HDMV/PGS
    Codec ID/Info                            : The same subtitle format used on BDs/HD-DVDs
    Language                                 : English
    Default                                  : No
    Forced                                   : No
    Menu
    00:00:00.000                             : en:Chapter 00
    00:01:30.423                             : en:Chapter 01
    00:03:18.406                             : en:Chapter 02
    00:06:48.950                             : en:Chapter 03
    00:14:44.091                             : en:Chapter 04
    00:21:11.645                             : en:Chapter 05
    -все раздачи мультсериала
Вне форума [Профиль] [ЛС]
Показать сообщения:    
Ответить на тему

Текущее время: Сегодня 01:06

Часовой пояс: GMT + 3



Вы не можете начинать темы
Вы не можете отвечать на сообщения
Вы не можете редактировать свои сообщения
Вы не можете удалять свои сообщения
Вы не можете голосовать в опросах
Вы не можете прикреплять файлы к сообщениям
Вы не можете скачивать файлы