Сегодня идет свободное скачивание без начисления Download

Симпсоны / The Simpsons / Сезон 22 / Серии 1-22 (22) (Мэтт Гроунинг / Matt Groening) [2010-2011 гг., мультфильм, комедия, WEB-DLRip] (VO-Production)

Ответить на тему
 
Автор
Сообщение

Omen ®

Стаж: 4 года 10 месяцев

Сообщений: 190643

Торрент-статистика

Пост 08-Янв-2013 08:39

[Цитировать]

-Симпсоны / The Simpsons- Год выхода в эфир: 2010-2011 гг.
Страна: США | 20th Century Fox Television
Жанр: мультфильм, комедия
Продолжительность: ~ 00:23:00
Перевод: Профессиональный (многоголосый, закадровый) /VO-Production/
Субтитры: Отсутствуют
Режиссер: Мэтт Гроунинг / Matt Groening-Роли озвучивали: Дэн Кастелланета, Джули Кавнер, Нэнси Картрайт, Ярдли Смит, Гарри Ширер, Хэнк Азария, Джо Энн Харрис, Памела Хейден, Крис Латта, Марсия Уоллес и др.-Описание: Мультфильм — пародия на американский уклад жизни. Cемейство Симпсонов состоит из пяти членов: папаша Гомер, мать семейства Мардж, их дочери Лиза и Мэгги и несносный подросток Барт.
-- -Качество: WEB-DLRip
Формат: AVI [сэмпл]
Видео кодек: XviD
Аудио кодек: AC3
Видео: 720x400 (1.80:1), 23.976 fps, XviD build 50 ~1340 kbps avg, 0.194 bit/pixel
Аудио: 48 kHz, AC3 Dolby Digital, 2/0 (L,R) ch, ~192.00 kbps avg |VO-Production|
Аудио: 48 kHz, AC3 Dolby Digital, 2/0 (L,R) ch, ~192.00 kbps avg |Оригинал|-Постер: Tri@x- -
-

Список серий


-
  • Elementary School Musical
  • Loan-a-Lisa
  • Money Bart
  • Treehouse of Horror XXI
  • Lisa Simpson, This Isn't Your Life
  • The Fool Monty
  • How Munched is That Birdie in the Window
  • The Fight Before Christmas
  • Donnie Fatso
  • Moms I'd Like To Forget
  • Flaming Moe
  • Homer The Father
  • The Blue and the Gray
  • Angry Dad: The Movie
  • The Scorpion’s Tale
  • A Midsummer’s Nice Dream
  • Love Is A Many Strangled Thing
  • The Great Simpsina
  • The Real Housewives of Fat Tony
  • Homer Scissorhands
  • 500 Keys
  • The Ned-Liest Catch

-

-

MEDiA iNFO

Код:
General
Complete name                    : E:\The Simpsons - Season 22 (VO-Production)\The.Simpsons.S22E08.WEB-DLRip.XviD.AC3.-SVM.avi
Format                           : AVI
Format/Info                      : Audio Video Interleave
File size                        : 301 MiB
Duration                         : 24mn 13s
Overall bit rate                 : 1 736 Kbps
Writing application              : VirtualDubMod 1.5.10.2 (build 2540/release)
Writing library                  : VirtualDubMod build 2540/release
Video
ID                               : 0
Format                           : MPEG-4 Visual
Format profile                   : Advanced Simple@L5
Format settings, BVOP            : Yes
Format settings, QPel            : No
Format settings, GMC             : No warppoints
Format settings, Matrix          : Default (MPEG)
Muxing mode                      : Packed bitstream
Codec ID                         : XVID
Codec ID/Hint                    : XviD
Duration                         : 24mn 13s
Bit rate                         : 1 338 Kbps
Width                            : 720 pixels
Height                           : 400 pixels
Display aspect ratio             : 16:9
Frame rate                       : 23.976 fps
Resolution                       : 8 bits
Colorimetry                      : 4:2:0
Scan type                        : Progressive
Bits/(Pixel*Frame)               : 0.194
Stream size                      : 232 MiB (77%)
Writing library                  : XviD 1.2.1 (UTC 2008-12-04)
Audio #1
ID                               : 1
Format                           : AC-3
Format/Info                      : Audio Coding 3
Codec ID                         : 2000
Duration                         : 24mn 13s
Bit rate mode                    : Constant
Bit rate                         : 192 Kbps
Channel(s)                       : 2 channels
Channel positions                : L R
Sampling rate                    : 48.0 KHz
Stream size                      : 33.3 MiB (11%)
Alignment                        : Split accross interleaves
Interleave, duration             : 42 ms (1.00 video frame)
Interleave, preload duration     : 500 ms
Audio #2
ID                               : 2
Format                           : AC-3
Format/Info                      : Audio Coding 3
Codec ID                         : 2000
Duration                         : 24mn 13s
Bit rate mode                    : Constant
Bit rate                         : 192 Kbps
Channel(s)                       : 2 channels
Channel positions                : L R
Sampling rate                    : 48.0 KHz
Stream size                      : 33.3 MiB (11%)
Alignment                        : Split accross interleaves
Interleave, duration             : 42 ms (1.00 video frame)
Interleave, preload duration     : 500 ms

-

Внимание! Раздача ведётся путём добавления новых серий!

Внимание! Раздача ведётся путём добавления новых серий; при каждом добавлении создётся новый торрент. Чтобы начать докачку новой серии, пользователям необходимо сделать следующее:
(1) остановить скачивание,
(2) удалить старый торрент у себя из клиента (старые серии удалять не надо),
(3) скачать новый торрент и запустить его у себя в клиенте вместо старого, при этом указать клиенту путь в старую папку куда и должно происходить скачивание новых серий.
Ваш клиент при этом должен произвести хеширование (проверку) старой папки (если не производит сам - помогите ему сделать это), и будет докачивать только те серии которых у вас ещё нет. Старые серии при этом не удаляются, а продолжают раздаваться!
Eсли вы уже удалили старые серии, то предотвратить повторную закачку старых серий можно, отжав галочку в соответсвующих местах при запуске нового торрента.

-
-
Вне форума [Профиль] [ЛС]
Показать сообщения:    
Ответить на тему

Текущее время: Сегодня 12:57

Часовой пояс: GMT + 3



Вы не можете начинать темы
Вы не можете отвечать на сообщения
Вы не можете редактировать свои сообщения
Вы не можете удалять свои сообщения
Вы не можете голосовать в опросах
Вы не можете прикреплять файлы к сообщениям
Вы не можете скачивать файлы