Сегодня идет свободное скачивание без начисления Download

Симпсоны / The Simpsons / Сезон: 24 / Серии: 1-8 (22) (Мэтт Гроунинг | Matt Groening) [2012-2013 гг., Мультсериал, комедия, WEB-DL 720p] MVO (VO-production) + Original + Rus Subs (allsimpsons) & Eng Subs

Ответить на тему
 
Автор
Сообщение

Omen ®

Стаж: 5 лет

Сообщений: 190529

Торрент-статистика

Пост 08-Янв-2013 08:38

[Цитировать]

Симпсоны / The Simpsons- - Страна: США
Жанр: Мультсериал, комедия
Продолжительность: ~00:22:00
Год выпуска: 2012-2013
Перевод: Профессиональный (многоголосый закадровый) VO-production
Субтитры: русские (allsimpsons) (1-5 серии!), английские
Режиссёр: Мэтт Гроунинг | Matt Groening
Описание: Симпсоны живут в вымышленном городе Спрингфилд, со своим обществом и историей. Гомер - отец семейства, который дает плохие советы и работает инспектором безопасности на атомной электростанции; Мардж - любящая мать и жена, старается сохранить спокойствие в семье; Барт - 10 летний хулиган; Лиза - философский 8-летний ребенок; и Мэгги - младенец, который общается посредством соски.-Семпл: http://multi-up.com/777407- -Качество: WEB-DL 720p
Формат: MKV
Видео: 1280x720 (1-2 серии), 1280x718 (3 и последующие серии) (16:9), 23.976 fps, MPEG-4 AVC ~3700 kbps avg, 0.166 bit/pixel
Аудио Rus: 48 kHz, AC3 Dolby Digital, 2/0 (L,R) ch, ~192.00 kbps avg
Аудио Eng: 48 kHz, AC3 Dolby Digital, 3/2 (L,C,R,l,r) + LFE ch, ~384.00 kbps avg-

Список серий

1. Moonshine River - Sep. 30, 2012
2. Treehouse of Horror XXIII - Oct. 7, 2012
3. Adventures in Baby-Getting - Nov. 4, 2012
4. Gone Abie Gone - Nov. 11, 2012
5. Penny-Wiseguys - Nov. 18, 2012
6. A Tree Grows in Springfield - Nov. 25, 2012
7. The Day the Earth Stood Cool - Dec. 9, 2012
8. To Cur with Love - Dec. 16, 2012

Подробные технические данные

GeneralUnique ID : 216614036320345755651886976574756983785 (0xA2F6588C6767631686DDC2B604A793E9)Complete name : D:\The.Simpsons.S24E01.Moonshine.River.720p.WEB-DL.DD5.1.H.264.mkvFormat : MatroskaFormat version : Version 2File size : 659 MiBDuration : 21mn 19sOverall bit rate : 4 319 KbpsEncoded date : UTC 2012-10-18 21:31:31Writing application : mkvmerge v5.3.0 ('I could have danced') built on Mar 4 2012 19:18:32Writing library : libebml v1.2.3 + libmatroska v1.3.0
VideoID : 1Format : AVCFormat/Info : Advanced Video CodecFormat profile : High@L3.1Format settings, CABAC : NoFormat settings, ReFrames : 2 framesCodec ID : V_MPEG4/ISO/AVCDuration : 21mn 19sBit rate : 3 657 KbpsWidth : 1 280 pixelsHeight : 720 pixelsDisplay aspect ratio : 16:9Frame rate mode : ConstantFrame rate : 23.976 fpsColor space : YUVChroma subsampling : 4:2:0Bit depth : 8 bitsScan type : ProgressiveBits/(Pixel*Frame) : 0.166Stream size : 558 MiB (85%)Language : EnglishDefault : YesForced : NoColor primaries : BT.709Transfer characteristics : BT.709Matrix coefficients : BT.709
Audio #1ID : 2Format : AC-3Format/Info : Audio Coding 3Mode extension : CM (complete main)Format settings, Endianness : BigCodec ID : A_AC3Duration : 21mn 19sBit rate mode : ConstantBit rate : 192 KbpsChannel(s) : 2 channelsChannel positions : Front: L RSampling rate : 48.0 KHzBit depth : 16 bitsCompression mode : LossyStream size : 29.3 MiB (4%)Language : RussianDefault : YesForced : No
Audio #2ID : 3Format : AC-3Format/Info : Audio Coding 3Mode extension : CM (complete main)Format settings, Endianness : BigCodec ID : A_AC3Duration : 21mn 19sBit rate mode : ConstantBit rate : 384 KbpsChannel(s) : 6 channelsChannel positions : Front: L C R, Side: L R, LFESampling rate : 48.0 KHzBit depth : 16 bitsCompression mode : LossyStream size : 58.6 MiB (9%)Language : EnglishDefault : NoForced : No
Text #1ID : 4Format : UTF-8Codec ID : S_TEXT/UTF8Codec ID/Info : UTF-8 Plain TextLanguage : RussianDefault : NoForced : No
Text #2ID : 5Format : UTF-8Codec ID : S_TEXT/UTF8Codec ID/Info : UTF-8 Plain TextLanguage : EnglishDefault : NoForced : No

Скриншоты

Внимание! Раздача ведётся путём добавления новых серий

Внимание! Раздача ведётся путём добавления новых серий; при каждом добавлении создаётся новый торрент. Чтобы начать докачку новой серии, пользователям необходимо сделать следующее:
(1) остановить скачивание,
(2) удалить старый торрент-файл у себя из клиента (старые серии удалять не надо),
(3) скачать новый торрент-файл из раздачи и запустить его у себя в клиенте вместо старого, при этом указать клиенту путь в старую папку куда и должно происходить скачивание новых серий.
Ваш клиент при этом должен произвести хеширование (проверку) старой папки (если не производит сам - помогите ему сделать это), и будет докачивать только те серии которых у вас ещё нет. Старые серии при этом не удаляются, а продолжают раздаваться!
Eсли вы уже посмотрели и удалили старые серии, то предотвратить повторную закачку старых серий можно, сняв галочки в соответсвующих местах при запуске нового торрента. По возможности, желательно не удалять старые серии как можно дольше чтобы релизёр не столько продолжал раздавать старые серии, а смог сконцентрироваться на новых.
Вне форума [Профиль] [ЛС]
Показать сообщения:    
Ответить на тему

Текущее время: Сегодня 14:35

Часовой пояс: GMT + 3



Вы не можете начинать темы
Вы не можете отвечать на сообщения
Вы не можете редактировать свои сообщения
Вы не можете удалять свои сообщения
Вы не можете голосовать в опросах
Вы не можете прикреплять файлы к сообщениям
Вы не можете скачивать файлы