Сегодня идет свободное скачивание без начисления Download

Симпсоны / The Simpsons / Сезон: 24 / Серии: 1-8 (22) (Мэтт Гроунинг / Matt Groening) [2012-2013 гг., анимационный мультсериал, HDTVRip-AVC] original + rus sub (notabenoid)

Ответить на тему
 
Автор
Сообщение

Omen ®

Стаж: 4 года 10 месяцев

Сообщений: 190643

Торрент-статистика

Пост 08-Янв-2013 08:38

[Цитировать]

-Симпсоны / The Simpsons- Страна: США Телеканал: FOX
Жанр: анимационный мультсериал
Продолжительность: 00:21:55
Год выпуска: 2012
Перевод: оригинал
Русские субтитры: есть (notabenoid)
Создатель: Matt Groening-Описание: Симпсоны живут в вымышленном городе Спрингфилд, со своим обществом и историей. Гомер - отец семейства, который дает плохие советы и работает инспектором безопасности на атомной электростанции; Мардж - любящая мать и жена, старается сохранить спокойствие в семье; Барт - 10 летний хулиган; Лиза - философский 8-летний ребенок; и Мэгги - младенец, который общается посредством соски.--Качество: HDTVRip-AVC (сэмпл)
Формат: MP4
Видео: AVC, 720x404, 23.98 fps, 617 Kbps, 0.089 bit/pixel
Аудио: [English] AAC, 48 kHz, 105 kbps, 2 ch-

Скриншоты


Внимание! Раздача ведётся путём добавления новых серий

Раздача ведётся путём добавления новых серий; при каждом добавлении создаётся новый торрент. Чтобы начать докачку новой серии, пользователям необходимо сделать следующее:
(1) остановить скачивание,
(2) удалить старый торрент у себя из клиента (старые серии удалять не надо),
(3) скачать новый торрент и запустить его у себя в клиенте вместо старого, при этом указать клиенту путь в старую папку куда и должно происходить скачивание новых серий.
Ваш клиент при этом должен произвести хеширование (проверку) старой папки (если не производит сам - помогите ему сделать это), и будет докачивать только те серии которых у вас ещё нет. Старые серии при этом не удаляются, а продолжают раздаваться!
Eсли вы уже удалили старые серии, то предотвратить повторную закачку старых серий можно, отжав галочку в соответствующих местах при запуске нового торрента. По возможности, желательно не удалять старые серии как можно дольше чтобы релизёр не столько продолжал раздавать старые серии, а смог сконцентрироваться на новых.

MI

GeneralComplete name : D:\Downloads\the.simpsons.2401.hdtv-lol.mp4Format : MPEG-4Format profile : Base MediaCodec ID : isomFile size : 109 MiBDuration : 21mn 3sOverall bit rate mode : VariableOverall bit rate : 727 KbpsEncoded date : UTC 2012-09-30 16:16:09Tagged date : UTC 2012-09-30 16:16:09
VideoID : 1Format : AVCFormat/Info : Advanced Video CodecFormat profile : High@L3.1Format settings, CABAC : YesFormat settings, ReFrames : 5 framesCodec ID : avc1Codec ID/Info : Advanced Video CodingDuration : 21mn 3sBit rate : 617 KbpsMaximum bit rate : 6 314 KbpsWidth : 720 pixelsHeight : 404 pixelsDisplay aspect ratio : 16:9Frame rate mode : ConstantFrame rate : 23.976 fpsColor space : YUVChroma subsampling : 4:2:0Bit depth : 8 bitsScan type : ProgressiveBits/(Pixel*Frame) : 0.089Stream size : 93.0 MiB (85%)Writing library : x264 core 128 r2216 198a7eaEncoding settings : cabac=1 / ref=5 / deblock=1:1:1 / analyse=0x3:0x133 / me=umh / subme=9 / psy=1 / psy_rd=1.00:0.00 / mixed_ref=1 / me_range=16 / chroma_me=1 / trellis=2 / 8x8dct=1 / cqm=0 / deadzone=21,11 / fast_pskip=1 / chroma_qp_offset=-2 / threads=18 / lookahead_threads=3 / sliced_threads=0 / nr=0 / decimate=1 / interlaced=0 / bluray_compat=0 / constrained_intra=0 / bframes=3 / b_pyramid=2 / b_adapt=2 / b_bias=0 / direct=3 / weightb=1 / open_gop=0 / weightp=2 / keyint=250 / keyint_min=23 / scenecut=40 / intra_refresh=0 / rc_lookahead=60 / rc=crf / mbtree=1 / crf=20.0 / qcomp=0.60 / qpmin=0 / qpmax=69 / qpstep=4 / ip_ratio=1.40 / aq=1:1.00Encoded date : UTC 2012-09-29 19:42:05Tagged date : UTC 2012-09-30 16:16:12Matrix coefficients : BT.709-5, BT.1361, IEC 61966-2-4 709, SMPTE RP177
AudioID : 2Format : AACFormat/Info : Advanced Audio CodecFormat profile : LCCodec ID : 40Duration : 21mn 3sBit rate mode : VariableBit rate : 105 KbpsMaximum bit rate : 148 KbpsChannel(s) : 2 channelsChannel positions : Front: L RSampling rate : 48.0 KHzCompression mode : LossyDelay relative to video : -3s 337msStream size : 15.8 MiB (14%)Encoded date : UTC 2012-09-30 16:16:12Tagged date : UTC 2012-09-30 16:16:12
-22/12/2012 добавлена 8-я серия!
Вне форума [Профиль] [ЛС]
Показать сообщения:    
Ответить на тему

Текущее время: Сегодня 11:01

Часовой пояс: GMT + 3



Вы не можете начинать темы
Вы не можете отвечать на сообщения
Вы не можете редактировать свои сообщения
Вы не можете удалять свои сообщения
Вы не можете голосовать в опросах
Вы не можете прикреплять файлы к сообщениям
Вы не можете скачивать файлы