Сегодня идет свободное скачивание без начисления Download

Гриффины / Family Guy / Сезон 1 / Cерия 1-7 из 7 (Seth MacFarlane / Сет Макфарлейн), [1999 гг., Анимационный, Комедия, DVDRip-AVC] (озвучка FiliZa Studio)

Ответить на тему
 
Автор
Сообщение

Omen ®

Стаж: 5 лет

Сообщений: 190529

Торрент-статистика

Пост 08-Янв-2013 08:40

[Цитировать]

Гриффины, Сезон 1 / Family Guy, Season 1 / Cерия 1-7 из 7
Год выпуска: 1999
Страна: США
Жанр: Комедия
Продолжительность: ~00:22:00 х7
Перевод: Профессиональный (многоголосый, закадровый)
Режиссер: Seth MacFarlane / Сет Макфарлейн
В ролях: Seth MacFarlane, Alex Borstein, Seth Green, Chris Griffin, Mila Kunis, Mike Henry, Danny Smith, Patrick Warburton, Lori Alan
Описание: "Гриффины" (Family Guy) - анимационное ТВ-Шоу, созданное Сетом МакФерлайном (Seth MacFarlane) для телеканала FOX. Как нетрудно догадаться, главными героями шоу
является семейка Гриффинов: тупой, но полный сумашедших идей, составляющих львиную долю шуток сериала, отец семейства Питер; его любящя и терпеливая жена Лойс, всеми силами
пытающаяся превратить Гриффинов в нормальную семью; их интеллектуально развитый не по годам, вынашивающий идею мирового господства младший сын Стьюи; дочь-ботаник, обречённая из-за этого на одиночество и непонимание как в школе так и дома, Мэг; и 13-ти летний отсталый в развитии лет на 10, что прекрасно видно по картинке (второй слева), сын Крис. Также полноценным членом семьи является пёс Брайн - склонный к меланхолии эстет, спокойно наблюдающий с бокалом вина в лапе над приключениями Питера и остальных членов семьи (и это при всём притом, что остальные собаки в сериале не являются очеловеченными).
Перевод: NiFiGaSeBe!
Озвучка: darkFIL, Little, Света
Релиз:
СЭМПЛ ОЗВУЧКИ
Качество: HQ DVDRip
Формат: MKV
Видео кодек: H.264
Аудио кодек: AC-3
Видео: 720 x 536; ~ 1 200 Kbps; 23.976 Гц
Аудио: Russian Стерео, 192 Кбит/сек; English Стерео, 192 Кбит/сек.
Субтитры: Русские, английские

Список серий

Family.Guy.1x01.Death.has.a.Shadow.[filiza.ru]
Family.Guy.1x02.I.Never.Met.the.Dead.Man.[filiza.ru]
Family.Guy.1x03.Chitty.Chitty.Death.Bang.[filiza.ru]
Family.Guy.1x04.Mind.Over.Murder.[filiza.ru]
Family.Guy.1x05.A.Hero.Sits.Next.Door.[filiza.ru]
Family.Guy.1x06.The.Son.Also.Draws.[filiza.ru]
Family.Guy.1x07.Brian,Portrait.of.a.Dog.[filiza.ru]
Выражаю огромную благодарность за предоставленный материал.
Гриффины / Family Guy (Сезон 1) / DVDRip, AVI
Гриффины / Family Guy (Сезон 5) / HQ DVDRip
Гриффины / Family Guy (Сезон 5) / DVDRip, AVI
Гриффины / Family Guy (Сезон 6) / HQ DVDRip
Гриффины / Family Guy (Сезон 6) / DVDRip, AVI
Гриффины / Family Guy (Сезон 7) / DVDRip, AVI
Гриффины / Family Guy (Сезон 8) / HDTVRip (WEB-DL)
Гриффины / Family Guy (Сезон 8) / HDTV (WEB-DL)
Family Guy Presents: Something, Something, Something, Dark Side
Стьюи Гриффин: Нерасказанная история / Stewie Griffin: The Untold Story

MI

General
Complete name : E:\Cartoon\Family Guy mkv\Family Guy - Season 1\Family.Guy.1x01.Death.has.a.Shadow.[filiza.ru].mkv
Format : Matroska
File size : 194 MiB
Duration : 22mn 32s
Overall bit rate : 1 206 Kbps
Encoded date : UTC 2010-04-05 20:04:40
Writing application : mkvmerge v2.0.2 ('You're My Flame') built on Feb 21 2007 23:40:55
Writing library : libebml v0.7.7 + libmatroska v0.8.1
Video
ID : 1
Format : AVC
Format/Info : Advanced Video Codec
Format profile : High@L4.1
Format settings, CABAC : Yes
Format settings, ReFrames : 3 frames
Muxing mode : Container profile=Unknown@4.1
Codec ID : V_MPEG4/ISO/AVC
Duration : 22mn 31s
Bit rate : 798 Kbps
Width : 720 pixels
Height : 536 pixels
Display aspect ratio : 4/3
Frame rate : 23.976 fps
Resolution : 24 bits
Colorimetry : 4:2:0
Scan type : Progressive
Bits/(Pixel*Frame) : 0.086
Stream size : 129 MiB (66%)
Writing library : x264 core 65 r999kMod cc51047
Encoding settings : cabac=1 / ref=3 / deblock=1:0:0 / analyse=0x3:0x133 / me=umh / subme=6 / psy_rd=1.0:0.0 / mixed_ref=1 / me_range=16 / chroma_me=1 / trellis=1 / 8x8dct=1 / cqm=0 / deadzone=21,11 / chroma_qp_offset=-2 / threads=2 / thread_queue=2 / nr=0 / decimate=1 / mbaff=0 / bframes=3 / b_pyramid=1 / b_adapt=1 / b_bias=0 / direct=1 / wpredb=1 / keyint=250 / keyint_min=25 / scenecut=40(pre) / rc=crf / crf=21.0000 / qcomp=0.60 / qpmin=10 / qpmax=51 / qpstep=4 / ip_ratio=1.40 / pb_ratio=1.30 / aq=1:1.00
Audio #1
ID : 2
Format : AC-3
Format/Info : Audio Coding 3
Codec ID : A_AC3
Duration : 22mn 32s
Bit rate mode : Constant
Bit rate : 192 Kbps
Channel(s) : 2 channels
Channel positions : L R
Sampling rate : 48.0 KHz
Stream size : 31.0 MiB (16%)
Title : FiliZa Studio (filiza.ru)
Language : Russian
Audio #2
ID : 3
Format : AC-3
Format/Info : Audio Coding 3
Format profile : Dolby Digital
Codec ID : A_AC3
Duration : 22mn 32s
Bit rate mode : Constant
Bit rate : 192 Kbps
Channel(s) : 2 channels
Channel positions : L R
Sampling rate : 48.0 KHz
Stream size : 31.0 MiB (16%)
Language : English
Text #1
ID : 4
Format : UTF-8
Codec ID : S_TEXT/UTF8
Codec ID/Info : UTF-8 Plain Text
Title : (c) NiFiGaSeBe!
Language : Russian
Text #2
ID : 5
Format : UTF-8
Codec ID : S_TEXT/UTF8
Codec ID/Info : UTF-8 Plain Text
Language : English

Скриншоты

Вне форума [Профиль] [ЛС]
Показать сообщения:    
Ответить на тему

Текущее время: Сегодня 02:40

Часовой пояс: GMT + 3



Вы не можете начинать темы
Вы не можете отвечать на сообщения
Вы не можете редактировать свои сообщения
Вы не можете удалять свои сообщения
Вы не можете голосовать в опросах
Вы не можете прикреплять файлы к сообщениям
Вы не можете скачивать файлы