Сегодня идет свободное скачивание без начисления Download

Гриффины / Family Guy / 10 сезон / 1-23 серия (23) (Seth MacFarlane / Сет Макфарлейн) [2011 г., Мультсериал, комедия, пародия, мюзикл, WEB-DL l 720p]

Ответить на тему
 
Автор
Сообщение

Omen ®

Стаж: 4 года 10 месяцев

Сообщений: 190643

Торрент-статистика

Пост 08-Янв-2013 08:39

[Цитировать]

- - Оригинальное название: Family Guy
Русское название: Гриффины
Год выпуска: 2011
Страна: США
Жанр: Мультсериал, комедия, пародия, мюзикл
Продолжительность: ~22 минут [серия]
Перевод: Профессиональный (многоголосый, закадровый) FiLiZa Studio
Сэмпл: скачать
Производство: FOX
Режиссер: Сет Макфарлейн.
Роли озвучивали: Сет МакФарлейн, Алекс Борштейн, Сет Грин, Мила Кунис, Майк Генри и другие.
Описание: "Гриффины" (Family Guy) - анимационное ТВ-Шоу, созданное Сетом МакФерлайном (Seth MacFarlane) для телеканала FOX. Как нетрудно догадаться, главными героями шоу является семейка Гриффинов: тупой, но полный сумашедших идей, составляющих львиную долю шуток сериала, отец семейства Питер; его любящя и терпеливая жена Лойс, всеми силами пытающаяся превратить Гриффинов в нормальную семью; их интеллектуально развитый не по годам, вынашивающий идею мирового господства младший сын Стьюи; дочь-ботаник, обречённая из-за этого на одиночество и непонимание как в школе так и дома, Мэг; и 13-ти летний отсталый в развитии лет на 10, сын Крис. Также полноценным членом семьи является пёс Брайн - склонный к меланхолии эстет, спокойно наблюдающий с бокалом вина в лапе над приключениями Питера и остальных членов семьи (и это при всём притом, что остальные собаки в сериале не являются очеловеченными).- -Перевод: Little-Роли озвучивали:
Little - Стьюи, Куагмайер, Брайан, Крис, Морт, Джо, доктор Хартман, пират, Том Такер и другие.
darkFIL - Питер, Джеймс Вудс, Карл, Дерек, Хорас, директор Шеппард и другие.
Света - Лоис, Мэг, Бонни и другие женские роли.
Пётр Гланц, Олег Варганов, Rise, SerGoLeOne и другие - второстепенные роли.-Формат: MKV
Видео кодек: h264
Аудио кодек: AC3
Видео: MPEG4 Video (H264) 1280x720 23.98fps 4200Kbps
Аудио:
  • русская дорожка: Dolby AC3 48000Hz 6ch 384Kbps,
  • оригинал: Dolby AC3 48000Hz 6ch 384Kbps
Скриншоты:

-

Список серий:

10 сезон:
01. Lottery Fever
02. Seahorse Seashell Party
03. Screams of Silence The Story of Brenda Q
04. Stewie Goes for a Drive
05. Back to Pilot
06. Thanksgiving
07. Amish Guy
08. Cool Hand Peter
09. Grumpy Old Man
10. Meg and Quagmire
11. The Blind Side
12. Livin'on a Prayer
13. Tom Tucker: The Man and His Dream
14. Be Careful What you Fish
15. Burning Down the Bayit
16. Killer Queen
17. Forget-Me-Not
18. You Can't Do That on Television, Peter
19. Mr. & Mrs. Stewie
20. Leggo My Meg-O

MediaInfo

Код:
General
UniqueID                         : 178608962680821500731699299031863388933 (0x865ED5BFB216C9FAA184353B9209EB05)
Complete name                    : D:\Family Guy\season 10\Family.Guy.S10E01.Lottery.Fever.720p.WEB-DL.DD5.1.H.264-SerGoLeOne.mkv
Format                           : Matroska
File size                        : 527 MiB
Duration                         : 21mn 36s
Overall bit rate                 : 3 411 Kbps
Encoded date                     : UTC 2011-09-29 14:28:25
Writing application              : mkvmerge v2.3.0 ('Freak U') built on Sep  8 2008 18:32:16
Writing library                  : libebml v0.7.7 + libmatroska v0.8.1
Video
ID                               : 1
Format                           : AVC
Format/Info                      : Advanced Video Codec
Format profile                   : High@L3.1
Format settings, CABAC           : No
Format settings, ReFrames        : 2 frames
Codec ID                         : V_MPEG4/ISO/AVC
Duration                         : 21mn 36s
Bit rate mode                    : Variable
Bit rate                         : 2 575 Kbps
Width                            : 1 280 pixels
Height                           : 720 pixels
Display aspect ratio             : 16:9
Frame rate                       : 23.976 fps
Color space                      : YUV
Chroma subsampling               : 4:2:0
Bit depth                        : 8 bits
Scan type                        : Progressive
Bits/(Pixel*Frame)               : 0.117
Stream size                      : 398 MiB (75%)
Language                         : English
Color primaries                  : BT.709-5, BT.1361, IEC 61966-2-4, SMPTE RP177
Transfer characteristics         : BT.709-5, BT.1361
Matrix coefficients              : BT.709-5, BT.1361, IEC 61966-2-4 709, SMPTE RP177
Audio #1
ID                               : 2
Format                           : AC-3
Format/Info                      : Audio Coding 3
Mode extension                   : CM (complete main)
Codec ID                         : A_AC3
Duration                         : 21mn 36s
Bit rate mode                    : Constant
Bit rate                         : 384 Kbps
Channel(s)                       : 6 channels
Channel positions                : Front: L C R, Side: L R, LFE
Sampling rate                    : 48.0 KHz
Bit depth                        : 16 bits
Compression mode                 : Lossy
Stream size                      : 59.3 MiB (11%)
Title                            : Filiza Studio
Language                         : Russian
Audio #2
ID                               : 3
Format                           : AC-3
Format/Info                      : Audio Coding 3
Mode extension                   : CM (complete main)
Codec ID                         : A_AC3
Duration                         : 21mn 36s
Bit rate mode                    : Constant
Bit rate                         : 384 Kbps
Channel(s)                       : 6 channels
Channel positions                : Front: L C R, Side: L R, LFE
Sampling rate                    : 48.0 KHz
Bit depth                        : 16 bits
Compression mode                 : Lossy
Stream size                      : 59.3 MiB (11%)
Title                            : Original
Language                         : English
-другие HQ-HD релизы Гриффинов от SerGoLeOne:
1 сезон [AVCRip]
9 сезон [WEB-DL]
Вне форума [Профиль] [ЛС]
Показать сообщения:    
Ответить на тему

Текущее время: Сегодня 18:39

Часовой пояс: GMT + 3



Вы не можете начинать темы
Вы не можете отвечать на сообщения
Вы не можете редактировать свои сообщения
Вы не можете удалять свои сообщения
Вы не можете голосовать в опросах
Вы не можете прикреплять файлы к сообщениям
Вы не можете скачивать файлы