Сегодня идет свободное скачивание без начисления Download

Шоу Тома и Джерри / The Tom and Jerry Show / Сезон: 1 / Серии: 16 из 16 (Чарльз Аугуст Николс / Charles August Nichols) [1975, мультсериал, комедия, приключения, DVB] MVO

Ответить на тему
 
Автор
Сообщение

Omen ®

Стаж: 5 лет

Сообщений: 190530

Торрент-статистика

Пост 04-Янв-2013 14:04

[Цитировать]

The Tom and Jerry Show / Шоу Тома и Джерри
Страна: США
Жанр: мультсериал, комедия, приключения
Продолжительность: 00:22:00
Год выпуска: 1975
Перевод: Профессиональный (многоголосый закадровый)
Русские субтитры: нет
Режиссёр: Чарльз Аугуст Николс / Charles August Nichols
Роли озвучивали: John Stephenson — Том, Джерри, Спайк
Don Messick, Joe E. Ross — Спайк.
Описание: Вечная история соперничества кота Тома и мышонка Джерри. Том упорно гоняется за Джерри по всему дому, и каждая новая уловка хитрого кота изобретательней предыдущей, но мышонок дает достойный отпор своему сопернику, не теряя возможности сделать ему между прочим какую-нибудь пакость.
Список серий:
01. No Way, Stowaways. The Ski Bunny. Stay Awake or Else...
02. No Bones About It. An Ill Wind. Beach Bully
03. Mammoth Manhunt. The Wacky World of Sports. Robin Ho Ho
04. Safe But Not Sorry. Gopher Broke. The Super Bowler
05. Tricky McTrout. The Tennis Menace. Cosmic Cat and Meteor Mouse
06. Castle Wiz. Grim and Bear It. The Flying Sorceress
07. The Kitten Sitters. Termites Plus Two. Planet Pest
08. The Hypochondriac Lion. Give 'Em the Air. The Egg and Tom and Jerry
09. Watch Out, Watch Dog. The Super Cyclists. The Police Kitten
10. The Outfoxed Fox. Towering Fiasco. The Lost Duckling
11. Beanstalk Buddies. Two Stars Are Born. Son of Gopher Broke
12. The Sorcerer's Apprentices. Hold That Pose. The Supercape Caper
13. Chickenrella. Double Trouble Crow. Jerry's Nephew
14. See Dr. Jackal and Hide. Planet of the Dogs. The Campout Cutup
15. Triple Trouble. The Bull Fighters. Cruise Kitty
16. It's No Picnic . Big Feet. The Great Motorboat Race
Доп. информация: На данный момент это самая полная и качественная раздача данного мультсериала. Собраны все серии в исходниках.
Качество: DVB
Формат: TS
Видео: MPEG Video, 720х576, 25 fps, 2 553 Kbps
Аудио: MPEG Audio, 48.0 KHz, 2 channels, 192 Kbps

Подробные технические данные

GeneralComplete name : D:\The Tom And Jerry Show (1975)\The Tom And Jerry Show 02.mpgFormat : MPEG-PSFile size : 440 MiBDuration : 21mn 56sOverall bit rate : 2 801 Kbps
VideoID : 224 (0xE0)Format : MPEG VideoFormat version : Version 2Format profile : Main@MainFormat settings, BVOP : YesFormat settings, Matrix : DefaultFormat settings, GOP : M=1, N=20Duration : 21mn 56sBit rate mode : VariableBit rate : 2 553 KbpsNominal bit rate : 15.0 MbpsWidth : 720 pixelsHeight : 576 pixelsDisplay aspect ratio : 4:3Frame rate : 25.000 fpsStandard : PALColor space : YUVChroma subsampling : 4:2:0Bit depth : 8 bitsScan type : InterlacedScan order : Top Field FirstCompression mode : LossyBits/(Pixel*Frame) : 0.246Stream size : 401 MiB (91%)
AudioID : 192 (0xC0)Format : MPEG AudioFormat version : Version 1Format profile : Layer 2Duration : 21mn 56sBit rate mode : ConstantBit rate : 192 KbpsChannel(s) : 2 channelsSampling rate : 48.0 KHzCompression mode : LossyStream size : 30.1 MiB (7%)

Скриншоты

Семпл

скачать
Релиз:
Вне форума [Профиль] [ЛС]
Показать сообщения:    
Ответить на тему

Текущее время: Сегодня 20:13

Часовой пояс: GMT + 3



Вы не можете начинать темы
Вы не можете отвечать на сообщения
Вы не можете редактировать свои сообщения
Вы не можете удалять свои сообщения
Вы не можете голосовать в опросах
Вы не можете прикреплять файлы к сообщениям
Вы не можете скачивать файлы