Сегодня идет свободное скачивание без начисления Download

Записки юного врача / A Young Doctor's Notebook (2012) (сезон 1, полный) (Алекс Хардкэсл / Alex Hardcastle) [2012г., Драма, Комедия, WEB-DLRip]MVO (LostFilm)

Ответить на тему
 
Автор
Сообщение

Omen ®

Стаж: 5 лет 9 месяцев

Сообщений: 184402

Торрент-статистика

Пост 04-Янв-2013 13:38

[Цитировать]

Записки юного врача
A Young Doctor's Notebook
- Русское название: Записки юного врача
Оригинальное название: A Young Doctor's Notebook
Страна: Великобритания
Год выпуска: 2012
Жанр: Драма, Комедия-Озвучка: Студия
Перевод: Многоголосый закадровый, профессиональный-Режиссер: Алекс Хардкэсл / Alex Hardcastle
Актеры: Адам Годли, Джон Хэмм, Дэниэл Рэдклифф, Рози Кавальеро, Вики Пеппердин, Шон Пай, Тим Стид, Нил Эдмонд, Джеймс Гроган, Джанин Дувицкий ...-Описание фильма:
4-серийная комедия, основанная на рассказах Михаила Афанасьевича Булгакова. Хэмм выступит в роли прошедшего первую мировую врача, который изо всех сил пытается скрыть свою неуверенность в себе и отсутствие доверия к людям. Страдающий от тяжелейшей наркотической зависимости доктор частенько заводит разговор с самим собой, только значительно более молодым. Роль двойника досталась Рэдклиффу.-Сезон: 1
Серии: 4 из 4 серий
Продолжительность: ~ 33:16 мин серия-Качество видео: WEB-DLRip
Формат: AVI
Видеокодек: XviD
Аудиокодек: Mp3
Видео: MPEG-4 Visual at 1145 Кбит/сек, 720 x 400 (1.800) at 23.976 fps
Аудио: MPEG Audio at 192 Кбит/сек, 2 канала(ов), 48,0 КГц
- -

Список серий:

  • Эпизод 1
  • Эпизод 2
  • Эпизод 3
  • Эпизод 4
-

MediaInfo:

Код:
General
Complete name                  : D:\Video\A.Young.Doctors.Notebook.S01.rus.LostFilm.TV\A.Young.Doctors.Notebook.S01E01.rus.LostFilm.TV.avi
Format                         : AVI
Format/Info                    : Audio Video Interleave
File size                      : 224 MiB
Duration                       : 23mn 16s
Overall bit rate mode          : Variable
Overall bit rate               : 1 345 Kbps
Writing application            : Nandub v1.0rc2
Writing library                : Nandub build 1853/release
Video
ID                             : 0
Format                         : MPEG-4 Visual
Format profile                 : Simple@L3
Format settings, BVOP          : No
Format settings, QPel          : No
Format settings, GMC           : No warppoints
Format settings, Matrix        : Default (H.263)
Codec ID                       : XVID
Codec ID/Hint                  : XviD
Duration                       : 23mn 16s
Bit rate                       : 1 145 Kbps
Width                          : 720 pixels
Height                         : 400 pixels
Display aspect ratio           : 16:9
Frame rate                     : 23.976 fps
Color space                    : YUV
Chroma subsampling             : 4:2:0
Bit depth                      : 8 bits
Scan type                      : Progressive
Compression mode               : Lossy
Bits/(Pixel*Frame)             : 0.166
Stream size                    : 190 MiB (85%)
Writing library                : XviD 1.2.1 (UTC 2008-12-04)
Audio
ID                             : 1
Format                         : MPEG Audio
Format version                 : Version 1
Format profile                 : Layer 3
Mode                           : Joint stereo
Mode extension                 : MS Stereo
Codec ID                       : 55
Codec ID/Hint                  : MP3
Duration                       : 23mn 16s
Bit rate mode                  : Variable
Bit rate                       : 192 Kbps
Channel(s)                     : 2 channels
Sampling rate                  : 48.0 KHz
Compression mode               : Lossy
Stream size                    : 31.3 MiB (14%)
Alignment                      : Aligned on interleaves
Interleave, duration           : 24 ms (0.58 video frame)
Interleave, preload duration   : 483 ms
Writing library                : LAME3.97b
Encoding settings              : -m j -V 4 -q 3 -lowpass 18.6 --abr 192
-Скриншоты:
       

Еще скриншоты

       
       
-Полный сезон
Вне форума [Профиль] [ЛС]
Похожие темы
Форум Тема Автор Торрент Отв. Посл. сообщение
./templates/default/images/folder_dl.gif Обучающее видео AudioMasterClass - Сведение аудиозаписей на компьютере [2011] PCRec Omen
1 | 0

7 | 4111

43

2014-12-18 15:44
PAUL FAYDER Последнее
./templates/default/images/folder_dl.gif Обучающее видео Дмитрий Михнов | Успешный трейдинг + Записи Мастер Группы (2015) PCRec [H.264/720p] moralis
1 | 0

0 | 1264

11

2016-02-06 22:05
moralis Последнее
Показать сообщения:    
Ответить на тему

Текущее время: Сегодня 08:02

Часовой пояс: GMT + 3



Вы не можете начинать темы
Вы не можете отвечать на сообщения
Вы не можете редактировать свои сообщения
Вы не можете удалять свои сообщения
Вы не можете голосовать в опросах
Вы не можете прикреплять файлы к сообщениям
Вы не можете скачивать файлы