Сегодня идет свободное скачивание без начисления Download

Теория Большого взрыва / The Big Bang Theory / Сезон: 2 / Серии: 1-23 (23) (Марк Сендроуски, Питер Чакос) [2008-2009, Ситком, WEB-DLRip-AVC] VO Кураж-Бамбей

Ответить на тему
 
Автор
Сообщение

Omen ®

Стаж: 5 лет 9 месяцев

Сообщений: 184402

Торрент-статистика

Пост 28-Дек-2012 13:13

[Цитировать]

Теория Большого взрыва / The Big Bang Theory / 2 Cезон / Web-DLRip-AVC
Год выпуска: 2008-2009
Страна: США
Жанр: Ситком
Продолжительность: 00:22:00
Перевод: профессиональный одноголосый закадровый -
Субтитры: русские, английские
Режиссёр: Марк Сендроуски, Питер Чакос
В ролях: Джонни Галаки, Джим Парсонс, Кейли Куоко, Саймон Хелберг, Кунал Найар, Сара Гилберт
Описание: Два блестящих физика, Леонард и Шелдон, «великие умы», которые понимают как «работает вселенная». Но их гениальность ничуть не помогает им общаться с людьми, особенно с женщинами. Всё начинает меняться, когда напротив них поселяется красавица Пенни. Когда Леонард и Шелдон встречают Пенни, Леонард сразу же начинает интересоваться ею. Он видит в общении с Пенни огромную перспективу… вплоть до любви, однако Шелдон понимает, что мечтам его друга не суждено сбыться. Стоит также отметить пару странных друзей этих физиков: Воловиц, который любит употреблять фразы на разных языках, включая русский, и Раджеш Кутраппали, теряющий дар речи при виде женщин.
Сэмпл: http://narod.ru/disk/39155498001/0219%20-%20The%20D...-Sample.mkv.html
Качество: WEB-DLRip
Формат: MKV
Видео кодек: H.264
Аудио кодек: AC3
Видео: 720 Х 400 / ~1400 kbp/s / 23.976 fps / 0.2 bit/px
Аудио: 5.1 / 48 KHz / ~384 kbp/s (2.0 / 48 KHz / ~192 kbp/s (2-5 серии)) - Русская
Аудио 3: 5.1 / 48 KHz / ~384 kbp/s - английская

Изменения

Сменился поставщик, не будет сабов и СТС.... пока...

Серии

0201 - The Bad Fish Paradigm
0202 - The Codpiece Topology
0203 - The Barbarian Sublimation
0204 - The Griffin Equivalency
0205 - The Euclid Alternative
0206 - The Cooper-Nowitzki Theorem
0207 - The Panty Pinata Polarization
0208 - The Lizard-Spock Expansion
0209 - The White Asparagus Triangulation
0210 - The Vartabedian Conundrum
0211 - The Bath Item Gift Hypothesis
0212 - The Killer Robot Instability
0213 - The Friendship Algorithm
0214 - The Financial Permeability
0215 - The Maternal Capacitance
0216 - The Cushion Saturation
0217 - The Terminator Decoupling
0218 - The Work Song Nanocluster
0219 - The Dead Hooker Juxtaposition
0220 - The Hofstadter Isotope
0221 - The Vegas Renormalization
0222 - The Classified Materials Turbulence
0223 - The Monopolar Expedition

MI

General
Unique ID : 194819343087400897084242663657076704803 (0x9290D7357AD6BB5BA44F4A8B9B644623)
Complete name : P:\Сериалы\Теория большого взрыва\The Big Bang Theory 2s Web-DLRip-AVC\0219 - The Dead Hooker Juxtaposition.mkv
Format : Matroska
Format version : Version 2
File size : 322 MiB
Duration : 20mn 22s
Overall bit rate : 2 210 Kbps
Movie name : The Big Bang Theory - 0219 - The Dead Hooker Juxtaposition / Релиз - D2T/"Криволапый ювелир"
Encoded date : UTC 2012-01-30 21:10:03
Writing application : mkvmerge v4.0.0 ('The Stars were mine') сборка от Jun 6 2010 16:18:42
Writing library : libebml v1.0.0 + libmatroska v1.0.0
Video
ID : 1
Format : AVC
Format/Info : Advanced Video Codec
Format profile : High@L3.0
Format settings, CABAC : Yes
Format settings, ReFrames : 4 frames
Codec ID : V_MPEG4/ISO/AVC
Duration : 20mn 22s
Bit rate : 1 398 Kbps
Width : 720 pixels
Height : 400 pixels
Display aspect ratio : 16:9
Frame rate : 23.976 fps
Color space : YUV
Chroma subsampling : 4:2:0
Bit depth : 8 bits
Scan type : Progressive
Bits/(Pixel*Frame) : 0.202
Stream size : 204 MiB (63%)
Writing library : x264 core 116 r2074 2641b9e
Encoding settings : cabac=1 / ref=4 / deblock=1:0:0 / analyse=0x3:0x113 / me=tesa / subme=9 / psy=1 / psy_rd=1.00:0.00 / mixed_ref=1 / me_range=16 / chroma_me=1 / trellis=2 / 8x8dct=1 / cqm=0 / deadzone=21,11 / fast_pskip=1 / chroma_qp_offset=-2 / threads=6 / sliced_threads=0 / nr=0 / decimate=1 / interlaced=0 / bluray_compat=0 / constrained_intra=0 / bframes=4 / b_pyramid=2 / b_adapt=2 / b_bias=0 / direct=3 / weightb=1 / open_gop=0 / weightp=2 / keyint=150 / keyint_min=1 / scenecut=33 / intra_refresh=0 / rc=cqp / mbtree=0 / qp=18 / ip_ratio=1.40 / pb_ratio=1.30 / aq=0
Language : English
Audio #1
ID : 2
Format : AC-3
Format/Info : Audio Coding 3
Mode extension : CM (complete main)
Codec ID : A_AC3
Duration : 20mn 22s
Bit rate mode : Constant
Bit rate : 384 Kbps
Channel(s) : 6 channels
Channel positions : Front: L C R, Side: L R, LFE
Sampling rate : 48.0 KHz
Bit depth : 16 bits
Compression mode : Lossy
Stream size : 55.9 MiB (17%)
Title : Кураж-Бамбей
Language : Russian
Audio #2
ID : 3
Format : AC-3
Format/Info : Audio Coding 3
Mode extension : CM (complete main)
Codec ID : A_AC3
Duration : 20mn 22s
Bit rate mode : Constant
Bit rate : 384 Kbps
Channel(s) : 6 channels
Channel positions : Front: L C R, Side: L R, LFE
Sampling rate : 48.0 KHz
Bit depth : 16 bits
Compression mode : Lossy
Stream size : 55.9 MiB (17%)
Language : English

Скриншоты

Релиз

"Криволапый ювелир"

Внимание! Раздача ведётся путём добавления новых серий

Внимание! Раздача ведётся путём добавления новых серий; при каждом добавлении создётся новый торрент. Чтобы начать докачку новой серии, пользователям необходимо сделать следующее:
(1) остановить скачивание,
(2) удалить старый торрент у себя из клиента (старые серии удалять не надо),
(3) скачать новый торрент и запустить его у себя в клиенте вместо старого, при этом указать клиенту путь в старую папку куда и должно происходить скачивание новых серий.
Ваш клиент при этом должен произвести хеширование (проверку) старой папки (если не производит сам - помогите ему сделать это), и будет докачивать только те серии которых у вас ещё нет. Старые серии при этом не удаляются, а продолжают раздаваться!
Eсли вы уже удалили старые серии, то предотвратить повторную закачку старых серий можно, отжав галочку в соответсвующих местах при запуске нового торрента. По возможности, желательно не удалять старые серии как можно дольше чтобы релизёр не столько продолжал раздавать старые серии, а смог сконцентрироваться на новых.

Теория Большого взрыва / The Big Bang Theory

НоваМедиа / СТС

1 Сезон
WEB-DLRip-AVC - http:///*spam*//forum/viewtopic.php?t=3891772
1,2 Сезоны
HDTVRip-AVC - http:///*spam*//forum/viewtopic.php?t=3815647
3 Сезон
BDRip-AVC - http:///*spam*//forum/viewtopic.php?t=3816864

НТВ / НТВ+

1 Сезон
WEB-DLRip-AVC - http:///*spam*//forum/viewtopic.php?t=3889033
Теория Большого Взрыва, дополнительные материалы - http:///*spam*//forum/viewtopic.php?t=3405678
Вне форума [Профиль] [ЛС]
Похожие темы
Форум Тема Автор Торрент Отв. Посл. сообщение
./templates/default/images/folder_dl.gif Психология, Тренинг, Саморазвитие Денис Бурхаев | Теория Контуров (2016) [MP3] }{@R0N
1 | 0

0 | 8184

10

2017-07-31 17:38
}{@R0N Последнее
Показать сообщения:    
Ответить на тему

Текущее время: Сегодня 08:01

Часовой пояс: GMT + 3



Вы не можете начинать темы
Вы не можете отвечать на сообщения
Вы не можете редактировать свои сообщения
Вы не можете удалять свои сообщения
Вы не можете голосовать в опросах
Вы не можете прикреплять файлы к сообщениям
Вы не можете скачивать файлы