Сегодня идет свободное скачивание без начисления Download

Фиксики (серии 01-60 из 156 + 10 Бонусов) (2010-2013) DVDRip + SATRip

Ответить на тему
 
Автор
Сообщение

Omen ®

Стаж: 4 года 10 месяцев

Сообщений: 190643

Торрент-статистика

Пост 28-Дек-2012 12:32

[Цитировать]

- Год выпуска: 2010-2012
Страна: Россия
Жанр: Компьютерная анимация, Детский
Режиссер: Васико Бедошвили, Андрей Колпин, Владимир Пономарёв-Релиз на DVD: 24 марта 2011, «Новый Диск», ...-Описание:«Фиксики» - это анимационный сериал, снятый в технике 3D и Flash студией «Аэроплан» («Гора самоцветов», «Мульти-Россия») по мотивам произведения Эдуарда Успенского «Гарантийные человечки». Это сериал о маленьких человечках, живущих внутри машин и приборов, ухаживающих за техникой и исправляющих мелкие поломки. Каждая серия «Фиксиков» посвящена одному из приборов или устройств, ежедневно окружающих детей в повседневной жизни. «Фиксики» в игровой форме учат детей тому, как устроен мир вокруг, как работает техника, как ее бережно и безопасно использовать.-Персонажи: Симка – девочка-фиксик, примерно девяти-десяти лет, Нолик – младший брат Симки, Ему пять лет. Папус – отец Симки и Нолика, Он мастер на все руки, Мася – жена Папуса, мама Нолика и Симки, Дим Димыч – мальчуган лет восьми, Большой фантазёр и любитель приключений, Кусачка – собачка породы чихуахуа-Продолжительность: 60 х ~ 00:06:00 / 10 x ~ 00:01:40-Видеокодек: Xvid / MPEG-4
Битрейт видео: 2 298 Kbps / 2 100 Kbps
Размер кадра: 720x400
Качество видео: DVDRip (1-44 серия) / SATRip (45-55 серия)
Аудиокодек: AC3 2.0
Битрейт аудио: 224 Kbps / 192 Kbps
- -

Media Info DVDRip

Код:
General
Complete name                    : \\Diskstation\torrent\Фиксики\01. Компакт-диск.avi
Format                           : AVI
Format/Info                      : Audio Video Interleave
File size                        : 109 MiB
Duration                         : 6mn 1s
Overall bit rate                 : 2 532 Kbps
Writing application              : VirtualDubMod 1.5.10.3 | (build 2550/release)
Writing library                  : VirtualDubMod build 2550/release
Video
ID                               : 0
Format                           : MPEG-4 Visual
Format profile                   : Advanced Simple@L5
Format settings, BVOP            : 2
Format settings, QPel            : No
Format settings, GMC             : No warppoints
Format settings, Matrix          : Default (H.263)
Codec ID                         : XVID
Codec ID/Hint                    : XviD
Duration                         : 6mn 1s
Bit rate                         : 2 298 Kbps
Width                            : 720 pixels
Height                           : 400 pixels
Display aspect ratio             : 16:9
Frame rate                       : 25.000 fps
Color space                      : YUV
Chroma subsampling               : 4:2:0
Bit depth                        : 8 bits
Scan type                        : Progressive
Compression mode                 : Lossy
Bits/(Pixel*Frame)               : 0.319
Stream size                      : 99.1 MiB (91%)
Writing library                  : XviD 1.2.1 (UTC 2008-12-04)
Audio
ID                               : 1
Format                           : AC-3
Format/Info                      : Audio Coding 3
Mode extension                   : CM (complete main)
Codec ID                         : 2000
Duration                         : 6mn 1s
Bit rate mode                    : Constant
Bit rate                         : 224 Kbps
Channel(s)                       : 2 channels
Channel positions                : Front: L R
Sampling rate                    : 48.0 KHz
Bit depth                        : 16 bits
Compression mode                 : Lossy
Stream size                      : 9.66 MiB (9%)
Alignment                        : Split accross interleaves
Interleave, duration             : 40 ms (1.00 video frame)
Interleave, preload duration     : 500 ms

Media Info SATRip

Код:
General
Complete name                    : \\Diskstation\torrent\Фиксики\45. Весы.avi
Format                           : AVI
Format/Info                      : Audio Video Interleave
File size                        : 80.8 MiB
Duration                         : 4mn 54s
Overall bit rate                 : 2 302 Kbps
Director                         : Rip by Thunder
Writing application              : VirtualDubMod 1.5.10.3 | (build 2550/release)
Video
ID                               : 0
Format                           : MPEG-4 Visual
Format profile                   : Advanced Simple@L5
Format settings, BVOP            : 2
Format settings, QPel            : No
Format settings, GMC             : No warppoints
Format settings, Matrix          : Default (MPEG)
Codec ID                         : DX50
Codec ID/Hint                    : DivX 5
Duration                         : 4mn 54s
Bit rate                         : 2 100 Kbps
Width                            : 720 pixels
Height                           : 400 pixels
Display aspect ratio             : 16:9
Frame rate                       : 25.000 fps
Color space                      : YUV
Chroma subsampling               : 4:2:0
Bit depth                        : 8 bits
Scan type                        : Progressive
Compression mode                 : Lossy
Bits/(Pixel*Frame)               : 0.292
Stream size                      : 73.7 MiB (91%)
Writing library                  : XviD 1.2.1 (UTC 2008-12-04)
Audio
ID                               : 1
Format                           : AC-3
Format/Info                      : Audio Coding 3
Mode extension                   : CM (complete main)
Codec ID                         : 2000
Duration                         : 4mn 54s
Bit rate mode                    : Constant
Bit rate                         : 192 Kbps
Channel(s)                       : 2 channels
Channel positions                : Front: L R
Sampling rate                    : 48.0 KHz
Bit depth                        : 16 bits
Compression mode                 : Lossy
Stream size                      : 6.74 MiB (8%)
Alignment                        : Split accross interleaves
Interleave, duration             : 40 ms (1.00 video frame)
Interleave, preload duration     : 500 ms
--Скриншоты:-DVDRip (1-47, 53 серия)
         -SATRip (48-52, 54-57 серия)
         
--

Список серий:

  • Компакт-диск
  • Пульт
  • Пылесос
  • Будильник
  • Сифон
  • Холодильник
  • Кодовый замок
  • Эсэмэски
  • Воздушный шар
  • Электрочайник
  • Зубная щётка
  • Микроволновка
  • Винтики
  • Железная дорога
  • Деталька
  • Степлер
  • Аквариум
  • Клавиатура
  • Шариковая ручка
  • Сотовый телефон
  • Фонарик
  • Стиральная машина
  • Робот
  • Термометр
  • Магнит
  • Музыкальная шкатулка
  • Гирлянда
  • Короткое замыкание
  • Фен
  • Вентилятор
  • Компас
  • Солнечная батарея
  • Кораблик
  • Взбитые сливки
  • Рычаг
  • Волшебная палочка
  • Ночник
  • Застёжка молния
  • Мультик
  • Миксер
  • Лупа
  • Бумага
  • Термос
  • Сигнализация
  • Весы
  • Копилка
  • Консервная банка
  • Интернет
  • Детектор лжи
  • Карамель
  • Микрофон
  • Зеркало
  • Команда
  • Кубик Нолика
  • Катапульта
  • Пятно
  • Вентиляция
  • Вентиляция
  • Сила трения
  • Помогатор
  • Дверной звонок
    Бонусы:
    01. Гимн фиксиков
    02. Тыдыщ
    03. К телефону подойди
    04. Помогатор
    05. Под Новый Год
    06. Часики
    07. Интернет
    08. Колесо
    09. Батарейки
    10. Молоко
-Внимание! Раздача ведётся путём добавления новых серий!
Внимание !!! Серии с 1-47, 53 в DVDRip

Описание обновления торрента:

Внимание! Раздача ведётся путём добавления новых серий; при каждом добавлении создаётся новый торрент.
Чтобы начать докачку новой серии, пользователям необходимо сделать следующее:
(1) остановить скачивание;
(2) удалить старый торрент у себя из клиента (старые серии удалять не надо);
(3) скачать новый торрент и запустить его у себя в клиенте вместо старого, при этом указать клиенту путь в старую папку куда и должно происходить скачивание новых серий.Ваш клиент при этом должен произвести хеширование (проверку) старой папки (если не производит сам - помогите ему сделать это), и будет докачивать только те серии которых у вас ещё нет. Старые серии при этом не удаляются, а продолжают раздаваться!Eсли вы уже удалили старые серии, то предотвратить повторную закачку старых серий можно, отжав галочку в соответствующих местах при запуске нового торрента.
Вне форума [Профиль] [ЛС]

Bay

Пол:

Стаж: 4 года 6 месяцев

Сообщений: 1

Торрент-статистика

Пост 15-Дек-2013 16:13 (спустя 11 месяцев 18 дней)

[Цитировать]

Привет! Не могу начать загрузку :( Предлагали написать в этом случае в "личку"... Пишу :)
Всего Вам доброго!
Вне форума [Профиль] [ЛС]
Показать сообщения:    
Ответить на тему

Текущее время: Сегодня 10:18

Часовой пояс: GMT + 3



Вы не можете начинать темы
Вы не можете отвечать на сообщения
Вы не можете редактировать свои сообщения
Вы не можете удалять свои сообщения
Вы не можете голосовать в опросах
Вы не можете прикреплять файлы к сообщениям
Вы не можете скачивать файлы