Сегодня идет свободное скачивание без начисления Download

Светлое будущее: Трилогия Право на жизнь / A Better Tomorrow: Trilogy (Джон Ву, Цуй Харк) [1986 -1989.., Боевик, триллер, драма, криминал, 1080p BDRemux]

Ответить на тему
 
Автор
Сообщение

Meshanik ®

Пол:

Стаж: 5 лет 6 месяцев

Сообщений: 4950

Откуда: Los Angeles

Торрент-статистика

Пост 25-Дек-2012 18:13

[Цитировать]

Светлое будущее: Трилогия Право на жизнь / A Better Tomorrow: Trilogy--

Название: Светлое будущее. Трилогия
Оригинальное название: A Better Tomorrow. Trilogy
Год выхода: 1986 / 1987 / 1989
Жанр: Боевик, триллер, драма, криминал
Режиссер: Джон Ву, Цуй Харк
Производство: Гонконг
Продолжительность: 01:35:15 / 01:43:47 / 01:59:02

--Светлое будущее / Ying hung boon sik- Русское название: Светлое будущее
Оригинальное название: Ying hung boon sik
Год выпуска: 1986
Страна: Гонконг
Жанр: Боевик, драма, криминал, триллер
Продолжительность: 01:35:15
Перевод: Многоголосый закадровый, Авторский (одноголосный закадровый)
Язык субтитров: Русский, английский, китайский
Вид субтитров: Вшитые отключаемые-Описание фильма:
Еще недавно близкие друзья Хо и Марк были большими авторитетами в гонконгской мафии, жили по понятиям, с каким-никаким кодексом правил. Но первый попал на три года в тюрьму и, освободившись, решил завязать, а второй, покалеченный во время перестрелки, теперь побирается.
Новый босс преступной группировки, беспредельщик, выбившийся из шестерок-лизоблюдов, с садистским удовольствием пытается отыграться на друзьях за прежние унижения, а, кроме того, хочет втянуть в свои грязные дела младшего брата Хо, инспектора полиции…-Режиссер: Джон Ву / John Woo
Актеры: Ланг Ти, Лесли Чун, Чоу Юнь-Фат, Эмили Чу, Уэйз Ли, Фуй-Он Син, Кеннет Цан, Цуй Харк, Джон Ву, Чи Фай Чан- -Дата мировой премьеры: 2 августа 1986
Дата выхода DVD релиза: 22 октября 2009, «Cinema Prestige»-Видеокодек: MPEG-4 AVC/H.264
Битрейт видео: ~22999 kbps
Размер кадра: 1920x1080
Качество видео: BDRemux
Контейнер: BDAV
Аудиокодек: DTS-HD MA , DTS , AC3
Аудио #1: Китайский ( DTS-HD MA / 7.1 / 48 kHz / 2964 kbps / 16-bit (DTS Core: 5.1 / 48 kHz / 1509 kbps / 16-bit)
Аудио #2: Русский ( DTS-HD MA / 7.1 / 48 kHz / 2965 kbps / 16-bit (DTS Core: 5.1 / 48 kHz / 1509 kbps / 16-bit) - Авторский (одноголосый закадровый) - Ю.Живов
Аудио #3: Русский ( DTS / 5.1 / 48 kHz / 768 kbps / 24-bit ) - Многоголосый закадровый ( Kravec )
Аудио #4: Русский ( AC3 / 5.1 / 48 kHz / 384 kbps ) - Многоголосый закадровый ( Cinema Prestige )
-

BDinfo

Код:
Disc Title: A_Better_Tomorrow_1986_BDRemux_HDCLUB
Disc Size: 22 921 700 972 bytes
Protection: AACS
BD-Java: No
BDInfo: 0.5.8
Notes:
BDINFO HOME:
Cinema Squid
http://www.cinemasquid.com/blu-ray/tools/bdinfo
INCLUDES FORUMS REPORT FOR:
AVS Forum Blu-ray Audio and Video Specifications Thread
http://www.avsforum.com/avs-vb/showthread.php?t=1155731
********************
PLAYLIST: 00000.MPLS
********************
<--- BEGIN FORUMS PASTE --->
Код:
                                                                                                                Total   Video
Title                                                           Codec   Length  Movie Size      Disc Size       Bitrate Bitrate Main Audio Track                          Secondary Audio Track
-----                                                           ------  ------- --------------  --------------  ------- ------- ------------------                        ---------------------
00000.MPLS                                                      AVC     1:35:15 22 921 607 808  22 921 700 972  32,08   23,00   DTS-HD Master 7.1 2964Kbps (48kHz/16-bit)
Код:
DISC INFO:
Disc Title:     A_Better_Tomorrow_1986_BDRemux_HDCLUB
Disc Size:      22 921 700 972 bytes
Protection:     AACS
BD-Java:        No
BDInfo:         0.5.8
PLAYLIST REPORT:
Name:                   00000.MPLS
Length:                 1:35:15.543 (h:m:s.ms)
Size:                   22 921 607 808 bytes
Total Bitrate:          32,08 Mbps
VIDEO:
Codec                   Bitrate             Description
-----                   -------             -----------
MPEG-4 AVC Video        22999 kbps          1080p / 23,976 fps / 16:9 / High Profile 4.1
AUDIO:
Codec                           Language        Bitrate         Description
-----                           --------        -------         -----------
DTS-HD Master Audio             Chinese         2964 kbps       7.1 / 48 kHz / 2964 kbps / 16-bit (DTS Core: 5.1 / 48 kHz / 1509 kbps / 16-bit)
DTS-HD Master Audio             Russian         2965 kbps       7.1 / 48 kHz / 2965 kbps / 16-bit (DTS Core: 5.1 / 48 kHz / 1509 kbps / 16-bit)
DTS Audio                       Russian         768 kbps        5.1 / 48 kHz / 768 kbps / 24-bit
Dolby Digital Audio             Russian         384 kbps        5.1 / 48 kHz / 384 kbps / DN -4dB
SUBTITLES:
Codec                           Language        Bitrate         Description
-----                           --------        -------         -----------
Presentation Graphics           English         21,927 kbps
Presentation Graphics           Chinese         28,696 kbps
Presentation Graphics           Russian         17,796 kbps
FILES:
Name            Time In         Length          Size            Total Bitrate
----            -------         ------          ----            -------------
00000.M2TS      0:00:00.000     1:35:15.543     22 921 607 808  32 083
CHAPTERS:
Number          Time In         Length          Avg Video Rate  Max 1-Sec Rate  Max 1-Sec Time  Max 5-Sec Rate  Max 5-Sec Time  Max 10Sec Rate  Max 10Sec Time  Avg Frame Size  Max Frame Size  Max Frame Time
------          -------         ------          --------------  --------------  --------------  --------------  --------------  --------------  --------------  --------------  --------------  --------------
1               0:00:00.000     0:04:09.081     20 009 kbps     35 522 kbps     00:01:23.958    32 562 kbps     00:01:20.371    29 794 kbps     00:02:45.665    104 298 bytes   416 263 bytes   00:01:22.165
2               0:04:09.081     0:03:40.845     25 888 kbps     32 506 kbps     00:05:20.570    28 051 kbps     00:06:39.065    27 616 kbps     00:06:54.372    134 968 bytes   414 975 bytes   00:06:32.934
3               0:07:49.926     0:03:55.861     23 108 kbps     35 644 kbps     00:10:32.757    29 502 kbps     00:10:32.631    28 821 kbps     00:10:32.632    120 474 bytes   405 900 bytes   00:10:58.866
4               0:11:45.788     0:02:59.971     19 677 kbps     26 611 kbps     00:13:45.908    23 610 kbps     00:11:50.042    22 554 kbps     00:11:47.039    102 585 bytes   385 765 bytes   00:11:50.793
5               0:14:45.759     0:03:48.019     25 130 kbps     35 748 kbps     00:14:49.847    32 228 kbps     00:14:46.343    28 479 kbps     00:14:45.759    131 014 bytes   394 032 bytes   00:14:52.308
6               0:18:33.778     0:06:32.477     23 634 kbps     36 510 kbps     00:24:40.187    32 174 kbps     00:24:40.020    28 575 kbps     00:24:39.269    123 204 bytes   399 256 bytes   00:24:45.859
7               0:25:06.255     0:04:27.433     25 754 kbps     32 688 kbps     00:25:06.671    29 438 kbps     00:25:06.504    28 530 kbps     00:25:06.504    134 271 bytes   407 965 bytes   00:27:39.199
8               0:29:33.689     0:05:14.439     24 428 kbps     36 754 kbps     00:33:16.577    29 603 kbps     00:32:38.206    28 513 kbps     00:31:57.874    127 356 bytes   445 426 bytes   00:31:59.792
9               0:34:48.128     0:06:11.744     22 803 kbps     36 832 kbps     00:37:05.640    28 563 kbps     00:39:08.304    28 049 kbps     00:39:03.299    118 911 bytes   397 549 bytes   00:39:09.847
10              0:40:59.873     0:05:44.094     21 382 kbps     36 447 kbps     00:45:46.660    33 276 kbps     00:45:42.823    28 931 kbps     00:45:42.448    111 478 bytes   405 355 bytes   00:42:58.951
11              0:46:43.967     0:04:47.163     23 171 kbps     34 998 kbps     00:51:25.749    27 329 kbps     00:49:59.121    25 987 kbps     00:48:44.671    120 784 bytes   406 441 bytes   00:49:48.944
12              0:51:31.130     0:03:30.041     24 146 kbps     35 743 kbps     00:51:32.714    28 900 kbps     00:52:07.833    27 265 kbps     00:53:29.414    125 908 bytes   399 657 bytes   00:52:32.107
13              0:55:01.172     0:05:42.508     20 907 kbps     35 428 kbps     00:56:10.533    27 707 kbps     00:55:34.205    26 314 kbps     00:55:01.172    108 998 bytes   404 792 bytes   00:55:47.677
14              1:00:43.680     0:04:24.974     22 744 kbps     37 464 kbps     01:01:10.083    30 267 kbps     01:04:21.899    29 139 kbps     01:04:18.646    118 558 bytes   396 329 bytes   01:03:03.571
15              1:05:08.655     0:05:00.341     21 781 kbps     29 712 kbps     01:07:22.204    27 586 kbps     01:06:07.797    27 168 kbps     01:06:02.416    113 572 bytes   385 856 bytes   01:07:47.188
16              1:10:08.996     0:06:09.161     23 736 kbps     36 227 kbps     01:11:14.812    30 114 kbps     01:14:34.887    28 535 kbps     01:11:23.320    123 733 bytes   403 473 bytes   01:15:20.265
17              1:16:18.157     0:02:30.358     24 926 kbps     34 021 kbps     01:18:10.102    29 411 kbps     01:16:48.645    27 917 kbps     01:16:43.682    129 988 bytes   422 208 bytes   01:16:50.522
18              1:18:48.515     0:05:03.344     23 291 kbps     35 040 kbps     01:21:00.939    30 716 kbps     01:20:56.935    28 800 kbps     01:20:53.348    121 430 bytes   394 213 bytes   01:20:55.058
19              1:23:51.859     0:06:38.690     25 235 kbps     32 902 kbps     01:29:16.225    27 850 kbps     01:24:01.244    27 598 kbps     01:23:56.740    131 562 bytes   411 445 bytes   01:27:01.257
20              1:30:30.550     0:04:44.993     18 454 kbps     30 794 kbps     01:32:55.194    26 571 kbps     01:30:46.816    24 927 kbps     01:30:43.813    96 212 bytes    388 617 bytes   01:34:07.516
STREAM DIAGNOSTICS:
File            PID             Type            Codec           Language                Seconds                 Bitrate                 Bytes           Packets
----            ---             ----            -----           --------                --------------          --------------          -------------   -----
00000.M2TS      4113 (0x1011)   0x1B            AVC                                     5715,460                22 999                  16 431 427 281  89 381 965
00000.M2TS      4352 (0x1100)   0x81            AC3             rus (Russian)           5715,460                383                     273 921 024     1 605 006
00000.M2TS      4353 (0x1101)   0x82            DTS             rus (Russian)           5715,460                753                     538 208 994     3 209 994
00000.M2TS      4354 (0x1102)   0x86            DTS-HD MA       rus (Russian)           5715,460                2 965                   2 118 444 740   12 394 838
00000.M2TS      4355 (0x1103)   0x86            DTS-HD MA       zho (Chinese)           5715,460                2 964                   2 117 637 676   12 388 116
00000.M2TS      4608 (0x1200)   0x90            PGS             rus (Russian)           5715,460                18                      12 714 485      74 326
00000.M2TS      4609 (0x1201)   0x90            PGS             eng (English)           5715,460                22                      15 665 399      91 319
00000.M2TS      4610 (0x1202)   0x90            PGS             zho (Chinese)           5715,460                29                      20 501 940      117 623
<---- END FORUMS PASTE ---->
-Скриншоты:

         
--Светлое будущее 2: Ураганный огонь / Ying hung boon sik II- -Русское название: Светлое будущее 2: Ураганный огонь
Оригинальное название: Ying hung boon sik II
Год выпуска: 1987
Страна: Гонконг
Жанр: Боевик, драма, криминал, триллер
Продолжительность: 01:43:47
Перевод: Многоголосый закадровый, Авторский (одноголосный закадровый)
Язык субтитров: Русский, английский, китайский
Вид субтитров: Вшитые отключаемые-Описание фильма:
Вторая часть фильма «Право на Жизнь» рассказывает о том, как бывший гангстер Хо, выйдя из тюрьмы, при помощи своего брата-полицейского Кита внедряется в банду фальшивомонетчиков.
Когда жизни ее главаря Лунга начинает грозить опасность, братья переправляют его в Нью-Йорк под защиту своего друга и брата-близнеца Марка Гора - Кена. Спасая Лунга, Кен бесстрашно сражается с наемными убийцами, подосланными мафией. И следуя чувству долга, он оставляет свои дела и отправляется в Гонконг, чтобы вместе друзьями разобраться с бандитами на месте.-Режиссер: Джон Ву / John Woo
Актеры: Дин Шек, Ланг Ти, Лесли Чун, Чоу Юнь-Фат, Эмили Чу, Фуй-Он Син, Кеннет Цан, Реджина Кент, Синг Чау Вэй, Марко Во- -Дата мировой премьеры: 17 декабря 1987
Дата выхода DVD релиза: 17 ноября 2009, «Cinema Prestige»-Видеокодек: MPEG-4 AVC/H.264
Битрейт видео: ~22999 kbps
Размер кадра: 1920x1080
Качество видео: BDRemux
Контейнер: BDAV
Аудиокодек: DTS-HD MA , DTS , AC3
Аудио #1: Китайский ( DTS-HD MA / 7.1 / 48 kHz / 2797 kbps / 16-bit (DTS Core: 5.1 / 48 kHz / 1509 kbps / 16-bit)
Аудио #2: Русский ( DTS-HD MA / 7.1 / 48 kHz / 2797 kbps / 16-bit (DTS Core: 5.1 / 48 kHz / 1509 kbps / 16-bit) - Авторский (одноголосый закадровый) - Ю.Живов
Аудио #3: Русский ( DTS / 5.1 / 48 kHz / 768 kbps / 24-bit ) - Многоголосый закадровый ( Kravec )
Аудио #4: Русский ( AC3 / 5.1 / 48 kHz / 384 kbps ) - Многоголосый закадровый ( Cinema Prestige )
-

BDinfo

Код:
Disc Title: A_Better_Tomorrow_2_1987_BDRemux_HDCLUB
Disc Size: 23 079 166 092 bytes
Protection: AACS
BD-Java: No
BDInfo: 0.5.8
Notes:
BDINFO HOME:
Cinema Squid
http://www.cinemasquid.com/blu-ray/tools/bdinfo
INCLUDES FORUMS REPORT FOR:
AVS Forum Blu-ray Audio and Video Specifications Thread
http://www.avsforum.com/avs-vb/showthread.php?t=1155731
********************
PLAYLIST: 00000.MPLS
********************
<--- BEGIN FORUMS PASTE --->
Код:
                                                                                                                Total   Video
Title                                                           Codec   Length  Movie Size      Disc Size       Bitrate Bitrate Main Audio Track                          Secondary Audio Track
-----                                                           ------  ------- --------------  --------------  ------- ------- ------------------                        ---------------------
00000.MPLS                                                      AVC     1:43:47 23 079 075 840  23 079 166 092  29,65   21,00   DTS-HD Master 7.1 2797Kbps (48kHz/16-bit)
Код:
DISC INFO:
Disc Title:     A_Better_Tomorrow_2_1987_BDRemux_HDCLUB
Disc Size:      23 079 166 092 bytes
Protection:     AACS
BD-Java:        No
BDInfo:         0.5.8
PLAYLIST REPORT:
Name:                   00000.MPLS
Length:                 1:43:47.179 (h:m:s.ms)
Size:                   23 079 075 840 bytes
Total Bitrate:          29,65 Mbps
VIDEO:
Codec                   Bitrate             Description
-----                   -------             -----------
MPEG-4 AVC Video        20999 kbps          1080p / 23,976 fps / 16:9 / High Profile 4.1
AUDIO:
Codec                           Language        Bitrate         Description
-----                           --------        -------         -----------
DTS-HD Master Audio             Chinese         2797 kbps       7.1 / 48 kHz / 2797 kbps / 16-bit (DTS Core: 5.1 / 48 kHz / 1509 kbps / 16-bit)
DTS-HD Master Audio             Russian         2794 kbps       7.1 / 48 kHz / 2794 kbps / 16-bit (DTS Core: 5.1 / 48 kHz / 1509 kbps / 16-bit)
DTS Audio                       Russian         768 kbps        5.1 / 48 kHz / 768 kbps / 24-bit
Dolby Digital Audio             Russian         384 kbps        5.1 / 48 kHz / 384 kbps / DN -4dB
SUBTITLES:
Codec                           Language        Bitrate         Description
-----                           --------        -------         -----------
Presentation Graphics           English         23,558 kbps
Presentation Graphics           Chinese         27,772 kbps
Presentation Graphics           Russian         12,383 kbps
FILES:
Name            Time In         Length          Size            Total Bitrate
----            -------         ------          ----            -------------
00000.M2TS      0:00:00.000     1:43:47.179     23 079 075 840  29 649
CHAPTERS:
Number          Time In         Length          Avg Video Rate  Max 1-Sec Rate  Max 1-Sec Time  Max 5-Sec Rate  Max 5-Sec Time  Max 10Sec Rate  Max 10Sec Time  Avg Frame Size  Max Frame Size  Max Frame Time
------          -------         ------          --------------  --------------  --------------  --------------  --------------  --------------  --------------  --------------  --------------  --------------
1               0:00:00.000     0:05:31.871     19 217 kbps     33 627 kbps     00:02:35.071    27 830 kbps     00:00:43.334    24 900 kbps     00:02:33.695    100 175 bytes   402 793 bytes   00:02:36.030
2               0:05:31.871     0:02:51.964     20 250 kbps     33 977 kbps     00:06:56.541    26 744 kbps     00:06:53.538    23 510 kbps     00:06:52.787    105 574 bytes   394 722 bytes   00:06:57.542
3               0:08:23.836     0:05:11.311     19 015 kbps     32 824 kbps     00:08:35.306    26 523 kbps     00:08:34.013    24 467 kbps     00:08:32.094    99 122 bytes    379 166 bytes   00:12:26.495
4               0:13:35.147     0:06:27.094     20 593 kbps     34 571 kbps     00:18:15.219    28 679 kbps     00:16:14.390    25 540 kbps     00:16:10.636    107 372 bytes   393 057 bytes   00:18:16.136
5               0:20:02.242     0:04:07.372     20 467 kbps     34 364 kbps     00:20:29.019    31 351 kbps     00:20:27.809    27 862 kbps     00:20:26.767    106 690 bytes   399 819 bytes   00:20:28.644
6               0:24:09.614     0:06:58.625     22 073 kbps     35 217 kbps     00:30:02.550    29 945 kbps     00:26:08.858    27 678 kbps     00:26:08.066    115 089 bytes   400 837 bytes   00:26:14.864
7               0:31:08.239     0:07:49.178     20 839 kbps     33 655 kbps     00:34:24.562    27 508 kbps     00:34:28.608    26 346 kbps     00:34:24.145    108 646 bytes   398 129 bytes   00:38:23.759
8               0:38:57.418     0:05:02.175     20 043 kbps     33 611 kbps     00:41:52.676    26 744 kbps     00:42:13.948    25 014 kbps     00:41:49.340    104 492 bytes   365 746 bytes   00:39:16.687
9               0:43:59.594     0:07:12.766     23 559 kbps     32 960 kbps     00:45:22.511    27 602 kbps     00:46:04.136    27 288 kbps     00:46:01.633    122 826 bytes   394 237 bytes   00:45:40.904
10              0:51:12.360     0:06:01.193     20 442 kbps     35 196 kbps     00:53:49.643    27 609 kbps     00:53:47.849    25 916 kbps     00:51:23.497    106 575 bytes   369 559 bytes   00:53:18.194
11              0:57:13.554     0:04:39.488     22 706 kbps     33 892 kbps     00:59:48.626    28 515 kbps     00:59:44.580    26 676 kbps     00:59:57.343    118 362 bytes   393 427 bytes   01:01:52.959
12              1:01:53.043     0:06:07.241     20 196 kbps     35 264 kbps     01:07:14.280    26 170 kbps     01:04:15.518    25 102 kbps     01:01:59.549    105 304 bytes   382 946 bytes   01:03:52.370
13              1:08:00.284     0:01:49.360     21 054 kbps     35 109 kbps     01:08:55.464    30 762 kbps     01:08:55.464    26 678 kbps     01:08:55.464    109 723 bytes   368 606 bytes   01:09:09.645
14              1:09:49.644     0:04:04.451     22 002 kbps     32 448 kbps     01:11:13.185    26 038 kbps     01:11:50.389    24 260 kbps     01:12:39.438    114 730 bytes   380 906 bytes   01:11:15.521
15              1:13:54.095     0:02:55.342     19 323 kbps     33 734 kbps     01:16:02.182    30 151 kbps     01:16:01.348    27 405 kbps     01:15:58.345    100 742 bytes   372 544 bytes   01:15:50.128
16              1:16:49.438     0:04:29.644     21 148 kbps     34 162 kbps     01:18:57.357    28 772 kbps     01:18:54.479    27 070 kbps     01:18:49.850    110 254 bytes   395 835 bytes   01:20:38.291
17              1:21:19.082     0:03:49.063     21 822 kbps     33 126 kbps     01:23:13.655    26 489 kbps     01:24:10.336    25 699 kbps     01:24:10.336    113 748 bytes   403 512 bytes   01:23:22.372
18              1:25:08.145     0:05:42.382     20 422 kbps     34 218 kbps     01:29:49.383    29 145 kbps     01:29:48.508    26 683 kbps     01:29:46.798    106 481 bytes   389 553 bytes   01:29:49.217
19              1:30:50.528     0:08:58.996     22 068 kbps     33 749 kbps     01:39:23.207    26 393 kbps     01:39:19.995    25 141 kbps     01:32:49.897    115 054 bytes   388 009 bytes   01:38:46.545
20              1:39:49.524     0:03:57.655     20 528 kbps     33 102 kbps     01:39:52.194    28 876 kbps     01:41:32.294    26 375 kbps     01:42:03.867    107 023 bytes   395 228 bytes   01:43:38.170
STREAM DIAGNOSTICS:
File            PID             Type            Codec           Language                Seconds                 Bitrate                 Bytes           Packets
----            ---             ----            -----           --------                --------------          --------------          -------------   -----
00000.M2TS      4113 (0x1011)   0x1B            AVC                                     6227,138                20 999                  16 345 609 811  88 922 259
00000.M2TS      4352 (0x1100)   0x81            AC3             rus (Russian)           6227,138                383                     298 475 520     1 748 880
00000.M2TS      4353 (0x1101)   0x82            DTS             rus (Russian)           6227,138                753                     586 454 742     3 497 742
00000.M2TS      4354 (0x1102)   0x86            DTS-HD MA       rus (Russian)           6227,138                2 795                   2 175 240 004   12 803 442
00000.M2TS      4355 (0x1103)   0x86            DTS-HD MA       zho (Chinese)           6227,138                2 797                   2 177 041 784   12 812 025
00000.M2TS      4608 (0x1200)   0x90            PGS             rus (Russian)           6227,138                12                      9 639 207       57 219
00000.M2TS      4609 (0x1201)   0x90            PGS             eng (English)           6227,138                24                      18 337 511      106 549
00000.M2TS      4610 (0x1202)   0x90            PGS             zho (Chinese)           6227,138                28                      21 618 070      124 405
<---- END FORUMS PASTE ---->
-Скриншоты:

         
--Светлое будущее 3: Любовь и смерть в Сайгоне / Ying hung boon sik III jik yeung ji gor- -Русское название: Светлое будущее 3: Любовь и смерть в Сайгоне
Оригинальное название: Ying hung boon sik III jik yeung ji gor
Год выпуска: 1989
Страна: Гонконг
Жанр: Боевик, драма, криминал, триллер
Продолжительность: 01:59:02
Перевод: Многоголосый закадровый, Авторский (одноголосный закадровый)
Язык субтитров: Русский, английский, китайский
Вид субтитров: Вшитые отключаемые-Описание фильма:
В третьем фильме за светлое будущее для себя, а не для народа борются два двоюродных брата. Действие начинается во Вьетнаме в конце войны с американцами. В Китае идет культурная революция. В Камбодже война. В эти смутные времена наши герои занимаются преступностью, сея горы трупов под руководством роковой красавицы.
Режиссер: Цуй Харк / Tsui Hark
Актеры: Чоу Юнь-Фат, Тони Люн Ка Фай, Анита Муи, Кьень Ши, Сабуро Токито, Вэй Лун Чэн, Уильям Чэн, Мэгги Чунг Хо Йи, Эндрю Кэм Юэнь Ва, Линг Нэм Лам-- -Дата мировой премьеры: 20 октября 1989
Дата выхода DVD релиза: 3 декабря 2009, «Cinema Prestige»-Видеокодек: MPEG-4 AVC/H.264
Битрейт видео: ~19001 kbps
Размер кадра: 1920x1080
Качество видео: BDRemux
Контейнер: BDAV
Аудиокодек: DTS-HD MA , DTS , AC3
Аудио #1: Китайский ( DTS-HD MA / 7.1 / 48 kHz / 2790 kbps / 16-bit (DTS Core: 5.1 / 48 kHz / 1509 kbps / 16-bit)
Аудио #2: Русский ( DTS-HD MA / 7.1 / 48 kHz / 2791 kbps / 16-bit (DTS Core: 5.1 / 48 kHz / 1509 kbps / 16-bit) - Авторский (одноголосый закадровый) - Ю.Живов
Аудио #3: Русский ( DTS / 5.1 / 48 kHz / 768 kbps / 24-bit ) - Многоголосый закадровый ( Kravec )
Аудио #4: Русский ( AC3 / 5.1 / 48 kHz / 384 kbps ) - Многоголосый закадровый ( Cinema Prestige )
-

BDInfo

Код:
Disc Title: A_Better_Tomorrow_3_1989_BDRemux_HDCLUB
Disc Size: 24 603 263 284 bytes
Protection: AACS
BD-Java: No
BDInfo: 0.5.8
Notes:
BDINFO HOME:
Cinema Squid
http://www.cinemasquid.com/blu-ray/tools/bdinfo
INCLUDES FORUMS REPORT FOR:
AVS Forum Blu-ray Audio and Video Specifications Thread
http://www.avsforum.com/avs-vb/showthread.php?t=1155731
********************
PLAYLIST: 00000.MPLS
********************
<--- BEGIN FORUMS PASTE --->
Код:
                                                                                                                Total   Video
Title                                                           Codec   Length  Movie Size      Disc Size       Bitrate Bitrate Main Audio Track                          Secondary Audio Track
-----                                                           ------  ------- --------------  --------------  ------- ------- ------------------                        ---------------------
00000.MPLS                                                      AVC     1:59:02 24 603 162 624  24 603 263 284  27,56   19,00   DTS-HD Master 7.1 2790Kbps (48kHz/16-bit)
Код:
DISC INFO:
Disc Title:     A_Better_Tomorrow_3_1989_BDRemux_HDCLUB
Disc Size:      24 603 263 284 bytes
Protection:     AACS
BD-Java:        No
BDInfo:         0.5.8
PLAYLIST REPORT:
Name:                   00000.MPLS
Length:                 1:59:02.593 (h:m:s.ms)
Size:                   24 603 162 624 bytes
Total Bitrate:          27,56 Mbps
VIDEO:
Codec                   Bitrate             Description
-----                   -------             -----------
MPEG-4 AVC Video        19001 kbps          1080p / 23,976 fps / 16:9 / High Profile 4.1
AUDIO:
Codec                           Language        Bitrate         Description
-----                           --------        -------         -----------
DTS-HD Master Audio             Chinese         2790 kbps       7.1 / 48 kHz / 2790 kbps / 16-bit (DTS Core: 5.1 / 48 kHz / 1509 kbps / 16-bit)
DTS-HD Master Audio             Russian         2791 kbps       7.1 / 48 kHz / 2791 kbps / 16-bit (DTS Core: 5.1 / 48 kHz / 1509 kbps / 16-bit)
DTS Audio                       Russian         768 kbps        5.1 / 48 kHz / 768 kbps / 24-bit
Dolby Digital Audio             Russian         384 kbps        5.1 / 48 kHz / 384 kbps / DN -4dB
SUBTITLES:
Codec                           Language        Bitrate         Description
-----                           --------        -------         -----------
Presentation Graphics           English         24,525 kbps
Presentation Graphics           Chinese         27,564 kbps
Presentation Graphics           Russian         16,161 kbps
FILES:
Name            Time In         Length          Size            Total Bitrate
----            -------         ------          ----            -------------
00000.M2TS      0:00:00.000     1:59:02.593     24 603 162 624  27 556
CHAPTERS:
Number          Time In         Length          Avg Video Rate  Max 1-Sec Rate  Max 1-Sec Time  Max 5-Sec Rate  Max 5-Sec Time  Max 10Sec Rate  Max 10Sec Time  Avg Frame Size  Max Frame Size  Max Frame Time
------          -------         ------          --------------  --------------  --------------  --------------  --------------  --------------  --------------  --------------  --------------  --------------
1               0:00:00.000     0:07:13.599     18 988 kbps     31 601 kbps     00:02:32.819    26 184 kbps     00:00:21.646    25 899 kbps     00:02:24.310    98 978 bytes    381 252 bytes   00:06:11.204
2               0:07:13.599     0:05:12.520     21 244 kbps     29 250 kbps     00:07:48.676    24 218 kbps     00:07:23.234    23 991 kbps     00:08:18.498    110 770 bytes   404 309 bytes   00:08:26.547
3               0:12:26.119     0:07:16.142     17 070 kbps     28 434 kbps     00:13:48.536    23 851 kbps     00:13:10.289    23 408 kbps     00:13:05.743    88 995 bytes    361 037 bytes   00:14:52.349
4               0:19:42.262     0:06:20.797     17 452 kbps     28 819 kbps     00:22:22.758    24 820 kbps     00:20:45.661    24 051 kbps     00:20:40.656    90 989 bytes    368 296 bytes   00:20:25.515
5               0:26:03.059     0:06:39.025     18 150 kbps     32 104 kbps     00:29:39.569    27 474 kbps     00:29:37.817    24 703 kbps     00:29:34.272    94 627 bytes    378 281 bytes   00:29:38.735
6               0:32:42.085     0:04:51.375     20 043 kbps     25 792 kbps     00:34:37.575    22 885 kbps     00:34:04.417    22 450 kbps     00:32:57.892    104 482 bytes   364 590 bytes   00:36:12.879
7               0:37:33.460     0:06:56.958     18 737 kbps     30 327 kbps     00:39:29.283    23 294 kbps     00:40:42.815    22 427 kbps     00:40:44.108    97 686 bytes    361 046 bytes   00:40:04.360
8               0:44:30.418     0:07:11.431     21 297 kbps     30 212 kbps     00:44:46.433    26 422 kbps     00:44:45.474    24 501 kbps     00:44:39.134    111 034 bytes   374 205 bytes   00:44:45.808
9               0:51:41.849     0:03:27.873     19 054 kbps     26 196 kbps     00:51:54.569    24 762 kbps     00:51:52.818    23 212 kbps     00:51:52.818    99 356 bytes    355 905 bytes   00:51:55.862
10              0:55:09.722     0:04:52.666     21 169 kbps     32 561 kbps     00:56:36.184    26 770 kbps     00:56:35.058    24 740 kbps     00:56:35.058    110 363 bytes   355 683 bytes   00:56:15.622
11              1:00:02.389     0:07:22.024     18 975 kbps     29 720 kbps     01:02:43.217    25 906 kbps     01:02:43.092    25 036 kbps     01:02:42.467    98 929 bytes    374 876 bytes   01:05:41.604
12              1:07:24.414     0:06:05.158     18 063 kbps     30 486 kbps     01:08:30.940    25 952 kbps     01:08:29.563    23 957 kbps     01:08:26.101    94 162 bytes    362 403 bytes   01:12:14.455
13              1:13:29.572     0:06:52.996     17 700 kbps     30 450 kbps     01:19:37.522    25 859 kbps     01:15:44.164    24 203 kbps     01:15:39.284    92 281 bytes    418 864 bytes   01:15:49.127
14              1:20:22.568     0:02:54.423     18 730 kbps     29 938 kbps     01:20:41.836    28 187 kbps     01:20:40.502    25 078 kbps     01:20:39.459    97 648 bytes    367 072 bytes   01:21:41.521
15              1:23:16.992     0:06:18.836     16 233 kbps     29 589 kbps     01:28:57.832    23 175 kbps     01:28:48.740    21 529 kbps     01:28:49.615    84 642 bytes    338 836 bytes   01:29:35.828
16              1:29:35.828     0:08:43.940     19 326 kbps     30 409 kbps     01:33:13.379    27 447 kbps     01:33:32.064    24 094 kbps     01:33:07.456    100 750 bytes   374 001 bytes   01:33:13.671
17              1:38:19.769     0:06:32.474     19 897 kbps     31 722 kbps     01:41:18.697    26 001 kbps     01:41:17.488    24 180 kbps     01:41:18.363    103 746 bytes   377 290 bytes   01:44:21.463
18              1:44:52.243     0:02:51.213     20 485 kbps     28 186 kbps     01:46:00.061    25 272 kbps     01:45:57.058    22 987 kbps     01:45:54.973    106 773 bytes   360 703 bytes   01:45:27.154
19              1:47:43.457     0:04:51.500     20 268 kbps     29 354 kbps     01:48:04.185    22 974 kbps     01:48:12.694    22 741 kbps     01:48:07.272    105 666 bytes   377 736 bytes   01:47:58.972
20              1:52:34.957     0:06:27.636     19 233 kbps     28 651 kbps     01:52:35.248    24 987 kbps     01:52:34.998    24 497 kbps     01:57:47.268    100 282 bytes   367 484 bytes   01:57:54.901
STREAM DIAGNOSTICS:
File            PID             Type            Codec           Language                Seconds                 Bitrate                 Bytes           Packets
----            ---             ----            -----           --------                --------------          --------------          -------------   -----
00000.M2TS      4113 (0x1011)   0x1B            AVC                                     7142,469                19 002                  16 964 829 297  92 300 542
00000.M2TS      4352 (0x1100)   0x81            AC3             rus (Russian)           7142,469                384                     342 418 944     2 006 361
00000.M2TS      4353 (0x1101)   0x82            DTS             rus (Russian)           7142,469                754                     672 796 704     4 012 704
00000.M2TS      4354 (0x1102)   0x86            DTS-HD MA       rus (Russian)           7142,469                2 791                   2 491 927 928   14 661 148
00000.M2TS      4355 (0x1103)   0x86            DTS-HD MA       zho (Chinese)           7142,469                2 790                   2 490 877 516   14 659 306
00000.M2TS      4608 (0x1200)   0x90            PGS             rus (Russian)           7142,469                16                      14 428 641      84 428
00000.M2TS      4609 (0x1201)   0x90            PGS             eng (English)           7142,469                25                      21 896 700      125 992
00000.M2TS      4610 (0x1202)   0x90            PGS             zho (Chinese)           7142,469                28                      24 609 865      140 733
<---- END FORUMS PASTE ---->
-Скриншоты:

         
--
Вне форума [Профиль] [ЛС]

Dracula

Стаж: 4 года 1 месяц

Сообщений: 10089

Торрент-статистика

Пост 25-Дек-2012 18:43 (спустя 29 минут)

Топик был перенесен из форума Зарубежное кино (HD Video) в форум Антология (DVD, HD Video)


kogesan
 
Показать сообщения:    
Ответить на тему

Текущее время: Сегодня 12:30

Часовой пояс: GMT + 3



Вы не можете начинать темы
Вы не можете отвечать на сообщения
Вы не можете редактировать свои сообщения
Вы не можете удалять свои сообщения
Вы не можете голосовать в опросах
Вы не можете прикреплять файлы к сообщениям
Вы не можете скачивать файлы