Сегодня идет свободное скачивание без начисления Download

Фильмы под Новый год - Ирония судьбы/Ирония судьбы.Продолжение/Тариф новогодний/Елки/Елки 2 (Эльдар Рязанов, Константин Бромберг и др.) [Комедия, 1956-2011]

Ответить на тему

Есть ли смысл в таких раздачах?

Да   100%  100%  [ 5 ]
Нет   0%  0%  [ 0 ]

Всего проголосовало : 5

Показать проголосовавших

 
Автор
Сообщение

centrashi ®

Пол:

Стаж: 6 лет 4 месяца

Сообщений: 52

Откуда: Украина

Торрент-статистика

Пост 03-Дек-2012 19:30

[Цитировать]

Фильмы под Новый год

Карнавальная ночь

Карнавальная ночь (1956) DVDRip - Оригинальное название: Карнавальная ночь
Год выпуска: 1956
Производство: СССР
Жанр: Комедия
Перевод: В оригинале
Субтитры: Отсутствуют
Дата российской премьеры: 29 декабря 1956
Дата выхода DVD релиза: 29 апреля 2009, «Азимут»
Режиссер: Эльдар Рязанов
Актеры: Людмила Гурченко, Игорь Ильинский, Юрий Белов, Георгий Куликов, Сергей Филиппов, Тамара Носова, Андрей Тутышкин, Геннадий Юдин, Борис Петкер, Владимир Зельдин
Описание фильма:
Знаменитая новогодняя комедия - творческий дебют молодого режиссёра Эльдара Рязанова, покорившего своим фильмом весь Советский Союз. Фильм сразу же был разобран на цитаты, юная Людмила Гурченко тотчас же стала знаменитой, а песни "Пять минут" и "Песенка о хорошем настроении" стали народными. Этот фильм стал одним из символов Нового Года, эстафету у которого через двадцать лет перехватила знаменитая "Ирония судьбы" всё того же Эльдара Рязанова.
Красивая, добрая, весёлая и немного наивная советская музыкальная комедия - один из шедевров советского кинематографа и символов эпохи.- -Продолжительность: 01:12:26
Качество видео: DVDRip
Видеокодек: XviD
Битрейт видео: ~ 2413 Кбит/сек
Размер кадра: 720x540 (4:3)
Аудио: AC3; 448 Kbps; CBR; 6 ch

MediaInfo

Код:
Полное имя                       : H:\новогодние фильмы\Karnaval.Notchb.DVDRipAVC.mkv
Формат                           : Matroska
Версия формата                   : Version 2
Размер файла                     : 1,45 Гбайт
Продолжительность                : 1 ч. 12 м.
Общий поток                      : 2863 Кбит/сек
Дата кодирования                 : UTC 2012-06-25 14:06:42
Программа кодирования            : mkvmerge v3.3.0 ('Language') gebaut am Mar 24 2010 14:59:24
Библиотека кодирования           : libebml v0.8.0 + libmatroska v0.9.0
Видео
Идентификатор                    : 1
Формат                           : AVC
Формат/Информация                : Advanced Video Codec
Профиль формата                  : High@L4.1
Параметр CABAC формата           : Да
Параметр ReFrames формата        : 12 кадров
Идентификатор кодека             : V_MPEG4/ISO/AVC
Продолжительность                : 1 ч. 12 м.
Битрейт                          : 2413 Кбит/сек
Ширина                           : 720 пикс.
Высота                           : 540 пикс.
Соотношение сторон               : 4:3
Частота кадров                   : 25,000 кадр/сек
Цветовое пространство            : YUV
Подвыборка цветности             : 4:2:0
Битовая глубина                  : 8 бит
Тип развёртки                    : Прогрессивная
Бит/(Пиксели*Кадры)              : 0.248
Размер потока                    : 1,19 Гбайт (82%)
Заголовок                        : Карнавальная ночь DVDRip by SC Kosmos
Библиотека кодирования           : x264 core 125 r2200 999b753
Настройки программы              : cabac=1 / ref=12 / deblock=1:-3:-3 / analyse=0x3:0x113 / me=umh / subme=10 / psy=1 / psy_rd=1.00:0.15 / mixed_ref=1 / me_range=32 / chroma_me=1 / trellis=2 / 8x8dct=1 / cqm=0 / deadzone=21,11 / fast_pskip=1 / chroma_qp_offset=-3 / threads=12 / lookahead_threads=2 / sliced_threads=0 / nr=0 / decimate=1 / interlaced=0 / bluray_compat=0 / constrained_intra=0 / bframes=10 / b_pyramid=2 / b_adapt=1 / b_bias=0 / direct=1 / weightb=1 / open_gop=0 / weightp=2 / keyint=250 / keyint_min=25 / scenecut=40 / intra_refresh=0 / rc_lookahead=40 / rc=2pass / mbtree=1 / bitrate=2413 / ratetol=1.0 / qcomp=0.60 / qpmin=0 / qpmax=69 / qpstep=4 / cplxblur=20.0 / qblur=0.5 / ip_ratio=1.40 / aq=1:1.00
Язык                             : Russian
Основные цвета                   : BT.470-6 System B, BT.470-6 System G, BT.601-6 625, BT.1358 625, BT.1700 625 PAL, BT.1700 625 SECAM
Характеристики трансфера         : BT.470-6 System B, BT.470-6 System G
Коэффициенты матрицы             : BT.470-6 System B, BT.470-6 System G, BT.601-6 625, BT.1358 625, BT.1700 625 PAL, BT.1700 625 SECAM, IEC 61966-2-4 601
Аудио
Идентификатор                    : 2
Формат                           : AC-3
Формат/Информация                : Audio Coding 3
Расширение режима                : CM (complete main)
Идентификатор кодека             : A_AC3
Продолжительность                : 1 ч. 12 м.
Вид битрейта                     : Постоянный
Битрейт                          : 448 Кбит/сек
Каналы                           : 6 каналов
Расположение каналов             : Front: L C R, Side: L R, LFE
Частота                          : 48,0 КГц
Битовая глубина                  : 16 бит
Метод сжатия                     : С потерями
Размер потока                    : 232 Мбайт (16%)
Язык                             : Russian
Меню
00:00:00.000                     : en:Chapter 01
00:06:04.800                     : en:Chapter 02
00:10:04.200                     : en:Chapter 03
00:21:19.800                     : en:Chapter 04
00:24:39.000                     : en:Chapter 05
00:28:59.400                     : en:Chapter 06
00:32:15.000                     : en:Chapter 07
00:36:07.800                     : en:Chapter 08
00:38:30.600                     : en:Chapter 09
00:42:37.200                     : en:Chapter 10
00:45:34.800                     : en:Chapter 11
00:47:56.400                     : en:Chapter 12
00:52:05.400                     : en:Chapter 13
00:54:41.400                     : en:Chapter 14
00:56:06.600                     : en:Chapter 15
00:59:03.000                     : en:Chapter 16
01:01:25.800                     : en:Chapter 17
01:05:07.800                     : en:Chapter 18
01:08:03.000                     : en:Chapter 19
01:10:05.400                     : en:Chapter 20

Скриншоты

         

Ирония судьбы

Ирония судьбы, или С лёгким паром!

Ирония судьбы, или С лёгким паром! (1975) DVDRip [Полная реставрация]

Год выпуска:
1975
Жанр: лирическая комедия
Режиссер: Эльдар Рязанов
Композитор: Микаэл Таривердиев
Сценарий: Эмиль Брагинский, Эльдар Рязанов
Продолжительность: 3:04:11 (01:39:51+01:24:20 - 2 серии)
В ролях: Андрей Мягков, Барбара Брыльска, Юрий Яковлев, Александр Ширвиндт, Георгий Бурков, Александр Белявский, Лия Ахеджакова, Валентина Талызина, Любовь Добржанская, Любовь Соколова, Ольга Науменко, Готлиб Ронинсон, Эльдар Рязанов
Описание:
31 декабря врач Женя Лукашин со своими друзьями, по традиции, пошел в баню. Ну, традиция у них такая была, попариться перед Новым годом. Вымылись, выпили... Один из них должен был лететь после этого в Ленинград, но кто именно, они уже не вспомнили. В самолет запихнули в бессознательном состоянии Женю, которого дожидалась невеста в московской квартире. Прилетев в Ленинград, Женя назвал таксисту свой адрес (оказывается, в Ленинграде тоже есть 3-я улица Строителей), вошел в дом, открыл дверь своим ключом (который идеально подошел к чужой двери) и лег отсыпаться. В это время домой вернулась молодая хозяйка ленинградской квартиры, намереваясь встретить праздник вместе со своим женихом...Что было дальше, вы все наверняка знаете. И чем дело кончилось, вам тоже известно. И всё равно давайте еще раз посмотрим вместе этот замечательный фильм - лучший, на мой взгляд, у Эльдара Рязанова.
Песни звучат в исполнении Аллы Пугачевой и Сергея Никитина. Барбара Брыльска говорит голосом Валентины Талызиной.
Качество: DVDRip ("Крупный план", полная реставрация изображения и звука)
Формат: AVI
Видео кодек: DivX
Аудио кодек: AC3
Видео (1 серия): 720x544 (1.32:1), 25 fps, DivX Codec 5.x, 1506 kbps avg, 0.15 bit/pixel
Видео (2 серия): 720x544 (1.32:1), 25 fps, DivX Codec 5.x, 1867 kbps avg, 0.19 bit/pixel
Аудио: 48 kHz, AC3 Dolby Digital, 3/2 (L,C,R,l,r) + LFE ch, 448.00 kbps avg

MediaInfo.Серия 1

Код:
Полное имя                       : H:\новогодние фильмы\Ирония судьбы\ирони судьбы 1\Part 1.avi
Формат                           : AVI
Формат/Информация                : Audio Video Interleave
Размер файла                     : 1,37 Гбайт
Продолжительность                : 1 ч. 39 м.
Общий поток                      : 1961 Кбит/сек
Программа кодирования            : VirtualDubMod 1.5.4.1 (build 2178/release)
Библиотека кодирования           : VirtualDubMod build 2178/release
Видео
Идентификатор                    : 0
Формат                           : MPEG-4 Visual
Параметр BVOP формата            : 1
Параметр QPel формата            : Нет
Параметр GMC формата             : Без точки перехода
Параметр матрицы формата         : Default (H.263)
Режим смешивания                 : Сжатый битовый поток
Идентификатор кодека             : DX50
Идентификатор кодека/Подсказка   : DivX 5
Продолжительность                : 1 ч. 39 м.
Битрейт                          : 1506 Кбит/сек
Ширина                           : 720 пикс.
Высота                           : 544 пикс.
Соотношение сторон               : 4:3
Частота кадров                   : 25,000 кадр/сек
Цветовое пространство            : YUV
Подвыборка цветности             : 4:2:0
Битовая глубина                  : 8 бит
Тип развёртки                    : Прогрессивная
Метод сжатия                     : С потерями
Бит/(Пиксели*Кадры)              : 0.154
Размер потока                    : 1,05 Гбайт (77%)
Библиотека кодирования           : DivX 6.2.5 (UTC 2006-07)
Аудио
Идентификатор                    : 1
Формат                           : AC-3
Формат/Информация                : Audio Coding 3
Расширение режима                : CM (complete main)
Идентификатор кодека             : 2000
Продолжительность                : 1 ч. 39 м.
Вид битрейта                     : Постоянный
Битрейт                          : 448 Кбит/сек
Каналы                           : 6 каналов
Расположение каналов             : Front: L C R, Side: L R, LFE
Частота                          : 48,0 КГц
Битовая глубина                  : 16 бит
Метод сжатия                     : С потерями
Размер потока                    : 320 Мбайт (23%)
Выравнивание                     : Разделение по промежуткам
Продолжительность промежутка     : 96  мс. (2,40 видеокадра)
Время предзагрузки промежутка    : 96 ms

MediaInfo.Серия 2

Код:
Полное имя                       : H:\новогодние фильмы\Ирония судьбы\ирони судьбы 1\Part 2.avi
Формат                           : AVI
Формат/Информация                : Audio Video Interleave
Размер файла                     : 1,37 Гбайт
Продолжительность                : 1 ч. 24 м.
Общий поток                      : 2322 Кбит/сек
Программа кодирования            : VirtualDubMod 1.5.4.1 (build 2178/release)
Библиотека кодирования           : VirtualDubMod build 2178/release
Видео
Идентификатор                    : 0
Формат                           : MPEG-4 Visual
Параметр BVOP формата            : 1
Параметр QPel формата            : Нет
Параметр GMC формата             : Без точки перехода
Параметр матрицы формата         : Default (H.263)
Режим смешивания                 : Сжатый битовый поток
Идентификатор кодека             : DX50
Идентификатор кодека/Подсказка   : DivX 5
Продолжительность                : 1 ч. 24 м.
Битрейт                          : 1867 Кбит/сек
Ширина                           : 720 пикс.
Высота                           : 544 пикс.
Соотношение сторон               : 4:3
Частота кадров                   : 25,000 кадр/сек
Цветовое пространство            : YUV
Подвыборка цветности             : 4:2:0
Битовая глубина                  : 8 бит
Тип развёртки                    : Прогрессивная
Метод сжатия                     : С потерями
Бит/(Пиксели*Кадры)              : 0.191
Размер потока                    : 1,10 Гбайт (80%)
Библиотека кодирования           : DivX 6.2.5 (UTC 2006-07)
Аудио
Идентификатор                    : 1
Формат                           : AC-3
Формат/Информация                : Audio Coding 3
Расширение режима                : CM (complete main)
Идентификатор кодека             : 2000
Продолжительность                : 1 ч. 24 м.
Вид битрейта                     : Постоянный
Битрейт                          : 448 Кбит/сек
Каналы                           : 6 каналов
Расположение каналов             : Front: L C R, Side: L R, LFE
Частота                          : 48,0 КГц
Битовая глубина                  : 16 бит
Метод сжатия                     : С потерями
Размер потока                    : 270 Мбайт (19%)
Выравнивание                     : Разделение по промежуткам
Продолжительность промежутка     : 96  мс. (2,40 видеокадра)
Время предзагрузки промежутка    : 96 ms

Скриншоты

         

Ирония судьбы. Продолжение

Ирония судьбы. Продолжение (2007) DVDRip- Название: Ирония судьбы. Продолжение
Год выхода: 2007
Жанр: Kомедия
Режиссер: Тимур Бекмамбетов
В ролях: Константин Хабенский, Сергей Безруков, Лиза Боярская, Барбара Брыльска, Андрей Мягков, Юрий Яковлев, Валентина Талызина, Александр Ширвиндт, Александр Белявский-О фильме: С того Нового года, когда Женя Лукашин встретил свою Надю, прошло тридцать лет. Время не пощадило их отношений — они расстались, она вернулась в Ленинград. Старые друзья продолжают каждый год ходить в баню, но теперь к ним присоединился Костя — сын Жени Лукашина от нового брака, тоже, впрочем, неудачного. И вот Павел и Александр, ставшие уже дядей Пашей и дядей Сашей, подговаривают Костю совершить для отца новогоднее чудо и отправиться… в Петербург!
Но в их хитрый план вмешивается случайность: там, в типовой квартирке по знакомому адресу: 3-я улица Строителей, дом 25, квартира 12, проживает красавица Наденька, дочь той самой Надежды. И именно сегодня её жених Ираклий приезжает, чтобы сделать Наде предложение…-
Выпущено: Россия, Первый канал
Продолжительность: 01:49:19
Перевод: Оригинал-Качество: DVDRip
Формат: AVI
Видео кодек: XviD
Аудио кодек: DTS
Видео: 704x288 (2.44:1), 25 fps, XviD build 47 ~1926 kbps avg, 0.38 bit/pixel
Аудио: 48 kHz, DTS, 5 ch, ~754.50 kbps avg

MediaInfo

Код:
Общее
Формат                           : AVI
Формат/Информация                : Audio Video Interleave
Профайл формата                  : OpenDML
Размер файла                     : 2,05 ГиБ
Продолжительность                : 1 ч. 49 м.
Общий поток                      : 2688 Кбит/сек
Программа кодирования            : VirtualDubMod 1.5.4.1 (build 2178/release)
Библиотека кодирования           : VirtualDubMod build 2178/release
Видео
Идентификатор                    : 0
Формат                           : MPEG-4 Visual
Профайл формата                  : Advanced Simple@L5
Параметры BVOP формата           : Да
Параметры QPel формата           : Нет
Параметры GMC формата            : Без точки перехода
Параметры матрицы формата        : Выборочная
Идентификатор кодека             : XVID
Идентификатор кодека/Подсказка   : XviD
Продолжительность                : 1 ч. 49 м.
Битрейт                          : 1925 Кбит/сек
Ширина                           : 704 пикс.
Высота                           : 288 пикс.
Соотношение кадра                : 2,40:1
Частота кадров                   : 25,000 кадр/сек
ColorSpace                       : YUV
ChromaSubsampling                : 4:2:0
BitDepth/String                  : 8 бит
Тип развёртки                    : Прогрессивная
Бит/(Пиксели*Кадры)              : 0.380
Размер потока                    : 1,47 ГиБ (72%)
Библиотека кодирования           : XviD 1.2.0.dev47 (UTC 2006-11-01)
Аудио
Идентификатор                    : 1
Формат                           : DTS
Формат/Информация                : Digital Theater Systems
Идентификатор кодека             : 2001
Идентификатор кодека/Информация  : Digital Theater Systems
Продолжительность                : 1 ч. 49 м.
Вид битрейта                     : Постоянный
Битрейт                          : 755 Кбит/сек
Канал(ы)                         : 6 канала(ов)
Расположение каналов             : Front: L C R, Side: L R, LFE
Частота                          : 48,0 КГц
BitDepth/String                  : 24 бит
Размер потока                    : 590 МиБ (28%)
Выравнивание                     : Разделение по промежуткам
Продолжительность промежутка     : 96  мс. (2,40 видеокадров)
Время предзагрузки промежутка    : 96 ms
Язык                             : Russian

Скриншоты

         

Чародеи

Чародеи (1982) [H.264] DVDRip- Русское название: Чародеи
Оригинальное название: Чародеи
Год выпуска: 1982
Страна: СССР, Одесская киностудия
Жанр: мюзикл, фантастика, мелодрама, комедия
Перевод: Оригинал (русский)
Субтитры: Отсутствуют-
Дата премьеры (РФ): 31 декабря 1982 (ТВ)
Режиссер: Константин Бромберг
Актеры: Александра Яковлева, Александр Абдулов, Валентин Гафт, Екатерина Васильева, Валерий Золотухин, Эммануил Виторган, Михаил Светин, Роман Филиппов, Анна Ашимова, Семён Фарада, Евгения Абрамова, Ирина Бельгер, Вера Смоляницкая, Лилия Макеева, Леонид Харитонов, Николай Парфёнов

Описание фильма:
Двухсерийная телевизионная музыкальная комедия с элементами фантастики - о любви и коварстве, о волшебных силах, которые помогают жениху (Александр Абдулов) после множества приключений накануне Нового года расколдовать его возлюбленную (Александра Яковлева), научную сотрудницу Института волшебства. Фильм снят по мотивам знаменитой повести Аркадия и Бориса Стругацких "Понедельник начинается в субботу"...-Продолжительность: 01:10:22 + 01:16:15
Качество видео: DVDRip-AVC
Формат: MKV
Видеокодек: MPEG-4 AVC
Битрейт видео: ~2405 kbps avg, 25,000 fps, 0,235 bit/pixel
Размер кадра: 716x572 ** 764x572 (4:3)
Аудиокодек: AAC
Аудио: Русский, 48.0 kHz, AAC , 6 ch ~256 Kbps avg

Знаете ли вы, что...

Семён Фарада вспоминает, что его роль задумывалась как эпизодная — гость с юга с четырьмя фразами. Но актёр сам придумал себе роль. Например, выдумал появление следов, когда его герой потерялся в лабиринтах коридора. Прямо в кадре выдал фразу: «Боже, как я похудел».
Идея белого костюма, в котором щеголял Александр Абдулов (главное, чтобы костюмчик сидел), заимствована из фильма «Лихорадка субботнего вечера». В этом фильме, в таком же костюме щеголял главный герой, в исполнении Джона Траволты.
Э. Виторган, М. Светин и А. Абдулов свои песни в фильме поют сами (за исключением «Серенады» «…Ей хватит, одной интонации хватит, чтоб пламя до неба разжечь!..», которую исполнил за кадром певец Л. Ф. Серебренников). А вот за Яковлеву (Алёна) и Ашимову (девочка Нина) пели, соответственно, Ирина Отиева, Ольга Рождественская и Лариса Долина.
Георгий Вицин озвучил говорящего кота Василия. Однако в итоговом монтаже почти вся роль кота была вырезана, остались всего два слова: «Хам!» и «Ура!». Вицин был ужасно расстроен.
Внутренние помещения НУИНУ снимали в здании телецентра Останкино. Режиссер фильма Константин Бромберг однажды заблудился в нем и забрел в часть здания, где обнаружил восьмипролетную мраморную лестницу с мозаикой и смальтой, о которой, как потом выяснил, все забыли. Внешний вид здания НУИНУ — московская гостиница «Союз». Банкетный зал, где происходила финальная сцена фильма, — суздальский гостинично-туристический комплекс «Турцентр». Дом, где жила Алена, снимали в городе Пущино.

MediaInfo:

Код:
Формат : Matroska
Размер файла : 1,57 Гигабайт
Продолжительность : 1 ч. 16 м.
Общий поток : 2953 Кбит/сек
Дата кодирования : UTC 2009-12-11 19:57:42
Программа-кодировщик : mkvmerge v2.9.7 ('Tenderness') built on Jul 1 2009 18:43:35
Библиотека кодирования : libebml v0.7.7 + libmatroska v0.8.1
Обложка : Yes
Видео
Идентификатор : 1
Формат : AVC
Формат/Информация : Advanced Video Codec
Профайл формата : [url=mailto:High@L3.1]High@L3.1[/url]
Параметры CABAC формата : Да
Параметры ReFrames формата : 7 кадры
Режим смешивания : Container profile=Unknown@3.1
Идентификатор кодека : V_MPEG4/ISO/AVC
Продолжительность : 1 ч. 16 м.
Ширина : 716 пикс.
Высота : 572 пикс.
Соотношение кадра : 4:3
Частота кадров : 25,000 кадр/сек
Разрешение : 24 бит
Колориметрия : 4:2:0
Тип развёртки : Прогрессивная
Заголовок : AVC; 716x572 (4/3); 2582 Kbps; 25 fps; 0,252 bpp
Библиотека кодирования : x264 core 80 r1369 ec8e586
Настройки программы : cabac=1 / ref=7 / deblock=1:-2:-1 / analyse=0x3:0x113 / me=umh / subme=10 / psy=1 / psy_rd=1.0:0.2 / mixed_ref=1 / me_range=16 / chroma_me=1 / trellis=2 / 8x8dct=1 / cqm=0 / deadzone=21,11 / fast_pskip=1 / chroma_qp_offset=-3 / threads=6 / sliced_threads=0 / nr=0 / decimate=1 / mbaff=0 / constrained_intra=0 / bframes=6 / b_pyramid=0 / b_adapt=2 / b_bias=0 / direct=3 / wpredb=1 / wpredp=2 / keyint=250 / keyint_min=25 / scenecut=40 / rc_lookahead=60 / rc=crf / mbtree=1 / crf=20.2 / qcomp=0.65 / qpmin=10 / qpmax=51 / qpstep=4 / ip_ratio=1.40 / aq=1:1.00
Язык : Russian
matrix_coefficients : BT.470-6 System B, BT.470-6 System G, BT.601-6 625, BT.1358 625, BT.1700 625 PAL, BT.1700 625 SECAM, IEC 61966-2-4 601
Аудио
Идентификатор : 2
Формат : AAC
Формат/Информация : Advanced Audio Codec
Версия формата : Version 4
Профайл формата : LC
Параметры SBR формата : Нет
Идентификатор кодека : A_AAC
Продолжительность : 1 ч. 16 м.
Канал(ы) : 6 канала(ов)
Расположение каналов : Front: L C R, Rear: L R, LFE
Частота : 48,0 КГц
Разрешение : 16 бит
Заголовок : AAC LC; 256 Kbps; VBR; 6 ch; 16 bit
Язык : Russian
Меню
00:00:00.000 : ru:Chapter 1
00:03:51.000 : ru:Chapter 2
00:07:53.160 : ru:Chapter 3
00:17:25.080 : ru:Chapter 4
00:23:49.680 : ru:Chapter 5
00:31:25.080 : ru:Chapter 6
00:39:06.240 : ru:Chapter 7
00:46:56.640 : ru:Chapter 8
00:52:35.760 : ru:Chapter 9
00:57:57.960 : ru:Chapter 10
01:01:21.600 : ru:Chapter 11
01:07:17.760 : ru:Chapter 12

Скриншоты

         

Елки

Елки

Елки (2010) BDRip-«Новый год атакует!»- Название:Елки
Жанр: Комедия
Год: 2010
Режиссер: Тимур Бекмамбетов, Ярослав Чеважевский
В ролях: Иван Ургант, Сергей Светлаков, Вера Брежнева, Сергей Гармаш, Артур Смольянинов, Екатерина Вилкова, Мария Порошина, Дато Бахтадзе, Александр Головин, Ольга Тумайкина, Виктор Вержбицкий, Кристина Асмус, Сергей Друзьяк, Павел Меленчук, Алина Булынко, Александр Домогаров мл., Никита Пресняков, Мария Симакина, Сергей Походаев, Андрей Кислицин, Константин Хабенский, Галина Стаханова, Борис Хвошнянский, Баймурат Аллабериев, Олег Филипчик
Описание:
События самой новогодней комедии ЁЛКИ происходят в 11 городах: Калининграде, Казани, Перми, Уфе, Бавлах, Екатеринбурге, Красноярске, Якутске, Новосибирске, Санкт-Петербурге и Москве. Герои фильма — таксист и поп-дива, бизнесмен и актер, сноубордист и лыжник, студент и пенсионерка, пожарник и директриса, вор и милиционер, гастарбайтер и Президент России. Все они оказываются в самый канун Нового года в очень непростой ситуации, выйти из которой им поможет только чудо… или Теория шести рукопожатий, согласно которой каждый человек на земле знает другого через шесть знакомых.- | -Продолжительность: 01:28:58
Студия: Bazelevs Production, Россия
Перевод: Не требуется
Информация о файле:
Формат файла: AVI
Качество: BDRip
Видео: XviD; 720 x 304; 23.976 fps; 1884 kbps; 0.36 bit/pixel
Аудио: 48 kHz; 5.1 ch; 448.00 kbps; AC3 Dolby Digital-

MediaInfo

Общее
Полное имя : S:\Video\HQ-Video\Yolki\Yolki.2010.RUS.BDRip.XviD.AC3.-HQ-ViDEO.avi
Формат : AVI
Формат/Информация : Audio Video Interleave
Размер файла : 1,46 Гбайт
Продолжительность : 1 ч. 28 м.
Общий поток : 2342 Кбит/сек
Название фильма : Ёлки / Yolki (2010)
Режиссёр : vladaudi (BDRip 1080)
Программа кодирования : VirtualDubMod 1.5.10.3 | www.virtualdub-fr.org || (build 2550/release)
Правообладатель : HQ-ViDEO
Примечание : 23.01.2011
Видео
Идентификатор : 0
Формат : MPEG-4 Visual
Профиль формата : Advanced Simple@L5
Параметр BVOP формата : 1
Параметр QPel формата : Нет
Параметр GMC формата : Без точки перехода
Параметр матрицы формата : Default (MPEG)
Идентификатор кодека : XVID
Идентификатор кодека/Подсказка : XviD
Продолжительность : 1 ч. 28 м.
Битрейт : 1885 Кбит/сек
Ширина : 720 пикселей
Высота : 304 пикселя
Соотношение сторон : 2,35:1
Частота кадров : 23,976 кадра/сек
Цветовое пространство : YUV
Субдискретизация насыщенности : 4:2:0
Битовая глубина : 8 бит
Тип развёртки : Прогрессивная
Метод сжатия : С потерями
Бит/(Пиксели*Кадры) : 0.359
Размер потока : 1,17 Гбайт (80%)
Библиотека кодирования : XviD 1.2.1 (UTC 2008-12-04)
Аудио
Идентификатор : 1
Формат : AC-3
Формат/Информация : Audio Coding 3
Расширение режима : CM (complete main)
Идентификатор кодека : 2000
Продолжительность : 1 ч. 28 м.
Вид битрейта : Постоянный
Битрейт : 448 Кбит/сек
Каналы : 6 каналов
Расположение каналов : Front: L C R, Side: L R, LFE
Частота : 48,0 КГц
Битовая глубина : 16 бит
Метод сжатия : С потерями
Размер потока : 285 Мбайт (19%)
Выравнивание : Разделение по промежуткам
Продолжительность промежутка : 42 мс. (1,00 видеокадр)
Время предзагрузки промежутка : 500 мс.

Скриншоты

       

Елки 2

Название:Елки 2
Жанр: Комедия
Год: 2011
Режиссер: Дмитрий Киселёв, Александр Баранов, Александр Котт
В ролях: Сергей Светлаков, Иван Ургант, Вера Брежнева, Сергей Безруков, Владимир Меньшов, Гоша Куценко, Александр Головин, Виктор Вержбицкий, Алексей Петренко, Петр Федоров
Описание:
За этот год много чего произошло, но наступит день, который всё расставит на свои места. Продолжение новогодних историй, которые происходили в жизни героев в фильме «Ёлки».- | -Продолжительность: 01:40:19
Студия: Bazelevs Production, Россия
Перевод: Не требуется
Информация о файле:
Формат файла: AVI
Качество: BDRip
Видео: XviD; 704 x 400; 1678 kbps; 23.976 fps; 0.25 bit/pixel
Аудио: AC3; 384 kbps; 5.1 Ch; 48 kHz

MediaInfo

Общее
Полное имя : S:\Video\HQ-Video\Yolki\Yolki.2.2011.RUS.BDRip.XviD.AC3.-HQ-ViDEO.avi
Формат : AVI
Формат/Информация : Audio Video Interleave
Размер файла : 1,45 Гбайт
Продолжительность : 1 ч. 40 м.
Общий поток : 2071 Кбит/сек
Название фильма : Yolki.2.2011.RUS.BDRip.XviD.AC3.-HQ-ViDEO
Режиссёр : AngelOfTrue
Программа кодирования : VirtualDubMod 1.5.10.3 | www.virtualdub-fr.org || (build 2550/release)
Формат оригинала/Имя : Movie
Правообладатель : HQ-ViDEO
Примечание : 15.02.2012
Видео
Идентификатор : 0
Формат : MPEG-4 Visual
Профиль формата : Advanced Simple@L5
Параметр BVOP формата : 1
Параметр QPel формата : Нет
Параметр GMC формата : Без точки перехода
Параметр матрицы формата : Выборочная
Идентификатор кодека : XVID
Идентификатор кодека/Подсказка : XviD
Продолжительность : 1 ч. 40 м.
Битрейт : 1678 Кбит/сек
Ширина : 704 пикселя
Высота : 400 пикселей
Соотношение сторон : 16:9
Частота кадров : 23,976 кадра/сек
Цветовое пространство : YUV
Субдискретизация насыщенности : 4:2:0
Битовая глубина : 8 бит
Тип развёртки : Прогрессивная
Метод сжатия : С потерями
Бит/(Пиксели*Кадры) : 0.248
Размер потока : 1,18 Гбайт (81%)
Библиотека кодирования : XviD 65
Аудио
Идентификатор : 1
Формат : AC-3
Формат/Информация : Audio Coding 3
Расширение режима : CM (complete main)
Идентификатор кодека : 2000
Продолжительность : 1 ч. 40 м.
Вид битрейта : Постоянный
Битрейт : 384 Кбит/сек
Каналы : 6 каналов
Расположение каналов : Front: L C R, Side: L R, LFE
Частота : 48,0 КГц
Битовая глубина : 16 бит
Метод сжатия : С потерями
Размер потока : 276 Мбайт (19%)
Выравнивание : Разделение по промежуткам
Продолжительность промежутка : 42 мс. (1,00 видеокадр)
Время предзагрузки промежутка : 500 мс.

Скриншоты

       

Тариф новогдний

Тариф Новогодний (2008) BDRip- Русское название: Тариф Новогодний
Год выпуска: 2008
Жанр: Комедия, Фэнтези
Описание фильма:
Новогодняя ночь всегда полна чудес и сюрпризов. Чудеса нашего времени часто происходят благодаря техническому прогрессу, хотя и не без участия Деда Мороза, который нынче может оказаться простым продавцом телефона Мечты… Так и у героев этой истории: Андрей купил новый телефон, а под бой курантов набрал наугад номер, чтобы поздравить с Новым годом совершенно незнакомого человека — такая у них была традиция с друзьями на Новый год. Набрал номер — и позвонил Алене, которая оказалась в… другом времени. В момент, когда Андрей перешел из 2008 в 2009, у Алены 2007 сменился на 2008...
Режиссер: Евгений Бедарев.
Актеры: Валерия Ланская, Максим Матвеев, Светлана Суханова, Евгений Славский, Борис Корчевников, Роман Полянский, Мирослава Карпович, Екатерина Маликова, Марк Богатырев, Станислав Беляев, Лана Щербакова и др.
Продолжительность: 01:26:08

Видеокодек: Xvid
Битрейт видео: ~ 1959 kbps
Размер кадра: 720 x 304
Качество видео: BDRip
Аудиокодек: AC3 5.1
Битрейт аудио: 448.00 kbps
Сэмпл: Ссылка

MediaInfo

Код:
Полное имя                       : H:\новогодние фильмы\Tarif.Novogodniy.2008.RUS.BDRip.XviD.AC3.-HQCLUB.avi
Формат                           : AVI
Формат/Информация                : Audio Video Interleave
Размер файла                     : 1,45 Гбайт
Продолжительность                : 1 ч. 26 м.
Общий поток                      : 2417 Кбит/сек
Программа кодирования            : VirtualDubMod 1.5.10.2 (build 2540/release)
Библиотека кодирования           : VirtualDubMod build 2540/release
Видео
Идентификатор                    : 0
Формат                           : MPEG-4 Visual
Профиль формата                  : Advanced Simple@L5
Параметр BVOP формата            : 1
Параметр QPel формата            : Нет
Параметр GMC формата             : Без точки перехода
Параметр матрицы формата         : Default (MPEG)
Идентификатор кодека             : XVID
Идентификатор кодека/Подсказка   : XviD
Продолжительность                : 1 ч. 26 м.
Битрейт                          : 1960 Кбит/сек
Ширина                           : 720 пикс.
Высота                           : 304 пикс.
Соотношение сторон               : 2,35:1
Частота кадров                   : 23,976 кадр/сек
Цветовое пространство            : YUV
Подвыборка цветности             : 4:2:0
Битовая глубина                  : 8 бит
Тип развёртки                    : Прогрессивная
Метод сжатия                     : С потерями
Бит/(Пиксели*Кадры)              : 0.373
Размер потока                    : 1,18 Гбайт (81%)
Библиотека кодирования           : XviD 1.2.1 (UTC 2008-12-04)
Аудио
Идентификатор                    : 1
Формат                           : AC-3
Формат/Информация                : Audio Coding 3
Расширение режима                : CM (complete main)
Идентификатор кодека             : 2000
Продолжительность                : 1 ч. 26 м.
Вид битрейта                     : Постоянный
Битрейт                          : 448 Кбит/сек
Каналы                           : 6 каналов
Расположение каналов             : Front: L C R, Side: L R, LFE
Частота                          : 48,0 КГц
Битовая глубина                  : 16 бит
Метод сжатия                     : С потерями
Размер потока                    : 276 Мбайт (19%)
Выравнивание                     : Разделение по промежуткам
Продолжительность промежутка     : 42  мс. (1,00 видеокадр)
Время предзагрузки промежутка    : 500 ms

Скриншоты

         
Самые популярные фильмы, рекомендуемые к просмотру на Новый год и Рождество. Если есть возможность,то напишите какие еще фильмы добавлять.
Участвуйте в опросе.

_________________
Бороться и искать, найти и не сдваться.
Вне форума [Профиль] [ЛС]

uschakov.yura

Пол:

Стаж: 6 лет 1 месяц

Сообщений: 658

Откуда: Рыбинск Ярославской области

Торрент-статистика

Пост 06-Янв-2013 03:13 (спустя 1 месяц 2 дня)

[Цитировать]

Фильм Ирония судьбы. Продолжение (2007) DVDRip очень, очень плохая гадость. uschakov.yura

_________________
uschakov.yura
Вне форума [Профиль] [ЛС]
Похожие темы
Форум Тема Автор Торрент Отв. Посл. сообщение
./templates/default/images/folder_dl.gif Приключения, детектив, боевик, триллер Борис Акунин | Смерть на брудершафт (Фильма 1-10) [2010-2012] [MP3] Omen
1 | 0

0 | 2300

39

2013-01-14 20:57
Omen Последнее
./templates/default/images/folder_dl.gif Иностранные мультфильмы Снежная королева 2: Перезаморозка / Снежная королева 2: Перезаморозка (Алексей Цицилин) [2014 г., мультфильм, фэнтези, комедия, приключения, семейный,WEB-DLRip ] (Оригинальное) Clavik
1 | 0

2 | 1483

58

2016-01-02 08:43
Dracula Последнее
./templates/default/images/folder_dl.gif Иностранные мультфильмы Корпорация монстров / Monsters, Inc. (Пит Доктер / Pete Docter, Дэвид Силверман / David Silverman, Ли Анкрич / Lee Unkrich) [2001, мультфильм, фэнтези, комедия, семейный, BDRip-AVC][Локализованный видеоряд] Dub + Rus, Eng Sub + Original Eng Omen
1 | 0

0 | 462

3

2015-02-21 12:00
Omen Последнее
./templates/default/images/folder_dl.gif Иностранные мультфильмы Ледниковый период / Ice Age (Крис Уэдж / Chris Wedge, Карлос Салдана / Carlos Saldanha/) [2002, США, мультфильм, BDRip] AVO (Сергей Визгунов) + AVO (Андрей Гаврилов) + Original Eng Omen
1 | 0

0 | 661

3

2016-09-23 01:00
Omen Последнее
./templates/default/images/folder_dl.gif Иностранные мультфильмы Тролли / Trolls (Уолт Дорн / Walt Dohrn, Майк Митчелл / Mike Mitchell) [2016, Мультфильм, мюзикл, фэнтези, комедия, приключения, семейный, WEB-DLRip] Dub (iTunes) Omen
1 | 0

0 | 629

4

2016-12-24 01:00
Omen Последнее
./templates/default/images/folder_dl.gif Иностранные мультфильмы Зверопой / Sing (Кристоф Лурделе, Гарт Дженнингс) [2016, мультфильм, комедия, семейный, музыка, BDRip] DUB | Лицензия Theseus
1 | 0

0 | 586

7

2017-04-17 22:07
Theseus Последнее
./templates/default/images/folder_dl.gif Новинки (HD|DVD|BD|WEB|TV|SAT|PDTV|-Rip) Три богатыря и принцесса Египта (Константин Феоктистов) [2017 г., мультфильм, приключения, семейный, фэнтези, WEB-DLRip-AVC] Original (RUS)][iTunes Russia] XP1971
1 | 0

0 | 1129

40

2018-01-30 09:48
XP1971 Последнее
./templates/default/images/folder_dl.gif Новинки (BD|HDTV|DVD) Кролик Питер / Peter Rabbit (Уилл Глак) [2018 г., мультфильм, фэнтези, комедия, приключения, семейный, BDRemux] DUB | iTunes Theseus
1 | 0

0 | 179

1

2018-04-26 21:48
Theseus Последнее
Показать сообщения:    
Ответить на тему

Текущее время: Сегодня 06:48

Часовой пояс: GMT + 3



Вы не можете начинать темы
Вы не можете отвечать на сообщения
Вы не можете редактировать свои сообщения
Вы не можете удалять свои сообщения
Вы не можете голосовать в опросах
Вы не можете прикреплять файлы к сообщениям
Вы не можете скачивать файлы