Today is a free download without charge Download

(EuroDance) VA - Суперхиты дискотеки 90-х - 2012, FLAC (image + .cue), lossless

Reply to topic
 
Author
Message

sergej644 ®

Gender:

Longevity: 8 years 4 months

Posts: 657

Location: Klaipeda

Торрент-статистика

Post 24-Nov-2012 16:16

[Quote]

-VA - Суперхиты дискотеки 90-х- Страна: All World || Жанр: EuroDance || Год выпуска: 2012 || Формат: FLAC (image + .cue) || Битрейт аудио: lossless || Продолжительность: 01:18:13- -01.Ace Of Base - Happy Nation (04:16)
02.Corona - The Rhythm Of The Night (04:25)
03.Mr.President - Up'n Away (03:56)
04.Cappella - U Got 2 Let The Music (03:40)
05.Magic Affair - Omen III (04:00)
06.DJ BoBo - Keep On Dancing (03:37)
07.Ice MC - Russian Roulette (04:28)
08.Captain Hollywood - All I Want (03:46)
09.Ace Of Base - Don't Turn Around (03:51)
10.Yaki-Da - Pride Of Africa (03:37)
11.Gala - Let A Boy Cry (03:27)
12.Corona - Baby Baby (03:48)
13.Haddaway - Catch A Fire (04:14)
14.Activate - Let The Rhythm Take Control (03:34)
15.Ice MC - Laika (04:07)
16.Alexia - Me And You (04:06)
17.Cappella - Move On Baby (03:40)
18.Miss Jane - It's A Fine Day (03:33)
19.Darude - Feel The Beat (04:20)
20.Doop - Yoghurt (03:38)
-

Лог создания рипа

Код:
Exact Audio Copy V1.0 beta 1 from 15. November 2010
EAC extraction logfile from 5. October 2012, 21:43
Various / Суперхиты дискотеки 90х
Used drive  : PIONEER DVD-RW  DVR-110D   Adapter: 2  ID: 2
Read mode               : Secure
Utilize accurate stream : Yes
Defeat audio cache      : Yes
Make use of C2 pointers : No
Read offset correction                      : 48
Overread into Lead-In and Lead-Out          : Yes
Fill up missing offset samples with silence : Yes
Delete leading and trailing silent blocks   : No
Null samples used in CRC calculations       : Yes
Used interface                              : Native Win32 interface for Win NT & 2000
Used output format              : User Defined Encoder
Selected bitrate                : 768 kBit/s
Quality                         : High
Add ID3 tag                     : No
Command line compressor         : C:\Program Files\Exact Audio Copy\FLAC\FLAC.EXE
Additional command line options : -6 -V -T "ARTIST=%a" -T "TITLE=%t" -T "ALBUM=%g" -T "DATE=%y" -T "TRACKNUMBER=%n" -T "GENRE=%m" -T "COMMENT=%e" %j--picture="%i"%j %s -o %d
TOC of the extracted CD
     Track |   Start  |  Length  | Start sector | End sector
    ---------------------------------------------------------
        1  |  0:00.00 |  4:16.47 |         0    |    19246
        2  |  4:16.47 |  4:25.31 |     19247    |    39152
        3  |  8:42.03 |  3:56.62 |     39153    |    56914
        4  | 12:38.65 |  3:40.30 |     56915    |    73444
        5  | 16:19.20 |  4:00.42 |     73445    |    91486
        6  | 20:19.62 |  3:37.17 |     91487    |   107778
        7  | 23:57.04 |  4:28.19 |    107779    |   127897
        8  | 28:25.23 |  3:46.26 |    127898    |   144873
        9  | 32:11.49 |  3:51.12 |    144874    |   162210
       10  | 36:02.61 |  3:37.73 |    162211    |   178558
       11  | 39:40.59 |  3:27.25 |    178559    |   194108
       12  | 43:08.09 |  3:48.51 |    194109    |   211259
       13  | 46:56.60 |  4:14.29 |    211260    |   230338
       14  | 51:11.14 |  3:34.22 |    230339    |   246410
       15  | 54:45.36 |  4:07.64 |    246411    |   264999
       16  | 58:53.25 |  4:06.15 |    265000    |   283464
       17  | 62:59.40 |  3:40.65 |    283465    |   300029
       18  | 66:40.30 |  3:33.42 |    300030    |   316046
       19  | 70:13.72 |  4:20.58 |    316047    |   335604
       20  | 74:34.55 |  3:38.36 |    335605    |   351990
Range status and errors
Selected range
     Filename D:\rip.flacmusic.ru\Various - Суперхиты дискотеки 90х.wav
     Peak level 100.0 %
     Extraction speed 0.3 X
     Range quality 100.0 %
     Test CRC 5D108396
     Copy CRC 5D108396
     Copy OK
No errors occurred
AccurateRip summary
Track  1  not present in database
Track  2  not present in database
Track  3  not present in database
Track  4  not present in database
Track  5  not present in database
Track  6  not present in database
Track  7  not present in database
Track  8  not present in database
Track  9  not present in database
Track 10  not present in database
Track 11  not present in database
Track 12  not present in database
Track 13  not present in database
Track 14  not present in database
Track 15  not present in database
Track 16  not present in database
Track 17  not present in database
Track 18  not present in database
Track 19  not present in database
Track 20  not present in database
None of the tracks are present in the AccurateRip database
End of status report

Содержание индексной карты *cue

Код:
REM GENRE Eurodance
REM DATE 2012
REM DISCID 1C125514
REM COMMENT "ExactAudioCopy v1.0b1"
PERFORMER "Various"
TITLE "Суперхиты дискотеки 90х"
FILE "Various - Суперхиты дискотеки 90х.flac" WAVE
  TRACK 01 AUDIO
    TITLE "Happy Nation"
    PERFORMER "Ace Of Base"
    INDEX 01 00:00:00
  TRACK 02 AUDIO
    TITLE "The Rhythm Of The Night"
    PERFORMER "Corona"
    INDEX 00 04:14:47
    INDEX 01 04:16:47
  TRACK 03 AUDIO
    TITLE "Up'n Away"
    PERFORMER "Mr.President"
    INDEX 00 08:40:03
    INDEX 01 08:42:03
  TRACK 04 AUDIO
    TITLE "U Got 2 Let The Music"
    PERFORMER "Cappella"
    INDEX 00 12:36:65
    INDEX 01 12:38:65
  TRACK 05 AUDIO
    TITLE "Omen III"
    PERFORMER "Magic Affair"
    INDEX 00 16:17:20
    INDEX 01 16:19:20
  TRACK 06 AUDIO
    TITLE "Keep On Dancing"
    PERFORMER "DJ BoBo"
    INDEX 00 20:17:62
    INDEX 01 20:19:62
  TRACK 07 AUDIO
    TITLE "Russian Roulette"
    PERFORMER "Ice MC"
    INDEX 00 23:55:04
    INDEX 01 23:57:04
  TRACK 08 AUDIO
    TITLE "All I Want"
    PERFORMER "Captain Hollywood"
    INDEX 00 28:23:23
    INDEX 01 28:25:23
  TRACK 09 AUDIO
    TITLE "Don't Turn Around"
    PERFORMER "Ace Of Base"
    INDEX 00 32:09:49
    INDEX 01 32:11:49
  TRACK 10 AUDIO
    TITLE "Pride Of Africa"
    PERFORMER "Yaki-Da"
    INDEX 00 36:00:61
    INDEX 01 36:02:61
  TRACK 11 AUDIO
    TITLE "Let A Boy Cry"
    PERFORMER "Gala"
    INDEX 00 39:38:59
    INDEX 01 39:40:59
  TRACK 12 AUDIO
    TITLE "Baby Baby"
    PERFORMER "Corona"
    INDEX 00 43:06:09
    INDEX 01 43:08:09
  TRACK 13 AUDIO
    TITLE "Catch A Fire"
    PERFORMER "Haddaway"
    INDEX 00 46:54:60
    INDEX 01 46:56:60
  TRACK 14 AUDIO
    TITLE "Let The Rhythm Take Control"
    PERFORMER "Activate"
    INDEX 00 51:09:14
    INDEX 01 51:11:14
  TRACK 15 AUDIO
    TITLE "Laika"
    PERFORMER "Ice MC"
    INDEX 00 54:43:36
    INDEX 01 54:45:36
  TRACK 16 AUDIO
    TITLE "Me And You"
    PERFORMER "Alexia"
    INDEX 00 58:51:25
    INDEX 01 58:53:25
  TRACK 17 AUDIO
    TITLE "Move On Baby"
    PERFORMER "Cappella"
    INDEX 00 62:57:40
    INDEX 01 62:59:40
  TRACK 18 AUDIO
    TITLE "It's A Fine Day"
    PERFORMER "Miss Jane"
    INDEX 00 66:38:30
    INDEX 01 66:40:30
  TRACK 19 AUDIO
    TITLE "Feel The Beat"
    PERFORMER "Darude"
    INDEX 00 70:11:72
    INDEX 01 70:13:72
  TRACK 20 AUDIO
    TITLE "Yoghurt"
    PERFORMER "Doop"
    INDEX 00 74:32:55
    INDEX 01 74:34:55
- -

_________________
У нас все платно: родиться, учиться, жениться, лечиться, умереть.
Бесплатно разрешено только работать.
Other forum [Profile] [PM]
Display posts from previous:    
Reply to topic

The time now is: Today 00:11

All times are GMT + 3 Hours



You cannot post new topics in this forum
You cannot reply to topics in this forum
You cannot edit your posts in this forum
You cannot delete your posts in this forum
You cannot vote in polls in this forum
You cannot attach files in this forum
You cannot download files in this forum