Сегодня идет свободное скачивание без начисления Download

Футурама / Futurama / Сезон: 6 / Серии: 14-26 (Мэтт Гроунинг / Matt Groening) [2011, Мультфильм, комедия, фантастика, BDRip-AVC] MVO (Vo-production) + MVO (LostFilm) + MVO (Кубик в Кубе) + rus sub

Ответить на тему
 
Автор
Сообщение

Omen ®

Стаж: 4 года 10 месяцев

Сообщений: 190643

Торрент-статистика

Пост 23-Ноя-2012 14:52

[Цитировать]

Футурама / Futurama / 6 Сезон / BDRip-AVC / Vo-production / LostFilm / Кубик в Кубе / Вторая часть сезона
Страна: США
Жанр: Мультфильм, комедия, фантастика
Продолжительность: 00:21:00
Год выпуска: 2011
Перевод: Профессиональный (многоголосый закадровый) - Vo-production
Перевод 2: Профессиональный (многоголосый закадровый) - LostFilm
Перевод 3: Профессиональный (многоголосый закадровый) - Кубик в Кубе
Русские субтитры: есть
Режиссёр: Мэтт Гроунинг / Matt Groening
Роли озвучивали: Билли Уэст, Кейти Сэгал, Джон ДиМаджио, Фил ЛаМарр, Лоурэн Том...
Описание: Сериал начинается с того, что разносчик пиццы из Нью-Йорка Филипп Джей Фрай случайно, как это кажется на первый взгляд, был заморожен в криогенной камере ровно в 00 часов 00 минут 00 секунд 1 января 2000 года. Он был разморожен тысячу лет спустя, 31 декабря 2999 года, и обнаружил себя в городе будущего Нью-Нью-Йорке. Знакомясь со своей будущей коллегой Турангой Лилой, Фрай пытается избежать принудительного назначения на работу курьером, кем он и был в прошлой жизни, и внедрения ему карьерного чипа — микросхемы, вшиваемой под кожу и определяющей род занятий своего носителя. Лила, в это время работающая инспектором по раздаче профессий, догоняя Фрая, чтобы вживить ему чип, в результате выслушивания речей Фрая о его прошлой никчемной жизни курьером, отказывается от работы инспектора, которая ей не по душе, и вместе они находят очень дальнего потомка Фрая (его пра-пра-пра-…-пра-внучатого племянника) Хьюберта Фарнсворта — маразматичного 160-летнего гениального ученого-склеротика, который берет их на работу в свою небольшую компанию «Межпланетный экспресс», занимающуюся межгалактическими грузоперевозками, на должность курьера. «Межпланетный экспресс» — это маленький бизнес профессора, окупающий его гениальные, но иногда весьма сомнительные исследования и изобретения.
Сэмпл: http://narod.ru/disk/44244941001.5a282084c5650d0fc2...0Clamps.mkv.html
Качество: BDRip
Формат: MKV
Видео: 720 X 400 / 23.976 fps / ~1100 kbps / 0.163 bt/px
Аудио: AC3 / 48.0 kHz / 2.0 ch / ~192 kbps / Vo-production
Аудио 2: AC3 / 48.0 kHz / 2.0 ch / ~192 kbps / LostFilm
Аудио 3: AC3 / 48.0 kHz / 2.0 ch / ~192 kbps / Кубик в Кубе
Аудио 4: AC3 / 48.0 kHz / 5.1 ch / ~384 kbps / Английская
Субтитры: русские, английские

Подробные технические данные

General
Unique ID : 180050869108304558342868283162920341708 (0x8774893973205F52973E4B7CE2A9D0CC)
Complete name : P:\Сериалы\Футурама\Futurama_6s_BDRip-AVC_Part2\0619 - Ghost in the Machines.mkv
Format : Matroska
Format version : Version 2
File size : 329 MiB
Duration : 21mn 39s
Overall bit rate : 2 125 Kbps
Movie name : Futurama - 0619 - Ghost in the Machines / Релиз - D2T/"Криволапый ювелир"
Encoded date : UTC 2012-03-22 20:00:54
Writing application : mkvmerge v4.0.0 ('The Stars were mine') сборка от Jun 6 2010 16:18:42
Writing library : libebml v1.0.0 + libmatroska v1.0.0
Video
ID : 1
Format : AVC
Format/Info : Advanced Video Codec
Format profile : High@L3.0
Format settings, CABAC : Yes
Format settings, ReFrames : 4 frames
Codec ID : V_MPEG4/ISO/AVC
Duration : 21mn 39s
Bit rate : 1 123 Kbps
Width : 720 pixels
Height : 400 pixels
Display aspect ratio : 16:9
Frame rate : 23.976 fps
Color space : YUV
Chroma subsampling : 4:2:0
Bit depth : 8 bits
Scan type : Progressive
Bits/(Pixel*Frame) : 0.163
Stream size : 174 MiB (53%)
Writing library : x264 core 116 r2074 2641b9e
Encoding settings : cabac=1 / ref=4 / deblock=1:0:0 / analyse=0x3:0x113 / me=tesa / subme=9 / psy=1 / psy_rd=1.00:0.00 / mixed_ref=1 / me_range=16 / chroma_me=1 / trellis=2 / 8x8dct=1 / cqm=0 / deadzone=21,11 / fast_pskip=1 / chroma_qp_offset=-2 / threads=6 / sliced_threads=0 / nr=0 / decimate=1 / interlaced=0 / bluray_compat=0 / constrained_intra=0 / bframes=4 / b_pyramid=2 / b_adapt=2 / b_bias=0 / direct=3 / weightb=1 / open_gop=0 / weightp=2 / keyint=150 / keyint_min=1 / scenecut=33 / intra_refresh=0 / rc=cqp / mbtree=0 / qp=16 / ip_ratio=1.40 / pb_ratio=1.30 / aq=0
Language : English
Audio #1
ID : 2
Format : AC-3
Format/Info : Audio Coding 3
Mode extension : CM (complete main)
Codec ID : A_AC3
Duration : 21mn 39s
Bit rate mode : Constant
Bit rate : 192 Kbps
Channel(s) : 2 channels
Channel positions : Front: L R
Sampling rate : 48.0 KHz
Bit depth : 16 bits
Compression mode : Lossy
Stream size : 29.7 MiB (9%)
Title : Vo-production
Language : Russian
Audio #2
ID : 3
Format : AC-3
Format/Info : Audio Coding 3
Mode extension : CM (complete main)
Codec ID : A_AC3
Duration : 21mn 39s
Bit rate mode : Constant
Bit rate : 192 Kbps
Channel(s) : 2 channels
Channel positions : Front: L R
Sampling rate : 48.0 KHz
Bit depth : 16 bits
Compression mode : Lossy
Stream size : 29.7 MiB (9%)
Title : LostFilm
Language : Russian
Audio #3
ID : 4
Format : AC-3
Format/Info : Audio Coding 3
Mode extension : CM (complete main)
Codec ID : A_AC3
Duration : 21mn 39s
Bit rate mode : Constant
Bit rate : 192 Kbps
Channel(s) : 2 channels
Channel positions : Front: L R
Sampling rate : 48.0 KHz
Bit depth : 16 bits
Compression mode : Lossy
Stream size : 29.7 MiB (9%)
Title : Кубик в Кубе
Language : Russian
Audio #4
ID : 5
Format : AC-3
Format/Info : Audio Coding 3
Mode extension : CM (complete main)
Codec ID : A_AC3
Duration : 21mn 39s
Bit rate mode : Constant
Bit rate : 384 Kbps
Channel(s) : 6 channels
Channel positions : Front: L C R, Side: L R, LFE
Sampling rate : 48.0 KHz
Bit depth : 16 bits
Compression mode : Lossy
Stream size : 59.5 MiB (18%)
Language : English
Text #1
ID : 6
Format : UTF-8
Codec ID : S_TEXT/UTF8
Codec ID/Info : UTF-8 Plain Text
Language : Russian
Text #2
ID : 7
Format : UTF-8
Codec ID : S_TEXT/UTF8
Codec ID/Info : UTF-8 Plain Text
Language : English

Скриншоты

Релиз

"Криволапый ювелир"
Вне форума [Профиль] [ЛС]

Serpex

Пол:

Стаж: 7 лет

Сообщений: 11

Торрент-статистика

Пост 23-Ноя-2012 15:04 (спустя 12 минут)

[Цитировать]

Так 7-й сезон или 6-й ?

_________________
SerpeX
Вне форума [Профиль] [ЛС]
Показать сообщения:    
Ответить на тему

Текущее время: Сегодня 04:37

Часовой пояс: GMT + 3



Вы не можете начинать темы
Вы не можете отвечать на сообщения
Вы не можете редактировать свои сообщения
Вы не можете удалять свои сообщения
Вы не можете голосовать в опросах
Вы не можете прикреплять файлы к сообщениям
Вы не можете скачивать файлы