Сегодня идет свободное скачивание без начисления Download

Кости / Bones / Сезон: 5 / Серии: 1-22 (22) (Аллан Крекер, Тони Уормби, Сэнфорд Букстэйвер, Грег Яйтанес) [2009-2010, Детектив, драма, криминал, WEB-DLRip] (Dub ТВ3 Россия)

Ответить на тему
 
Автор
Сообщение

Omen ®

Стаж: 5 лет 9 месяцев

Сообщений: 184433

Торрент-статистика

Пост 22-Ноя-2012 10:20

[Цитировать]

Кости / Bones
Год выпуска: 2009-2010
Страна: США
Жанр: Детектив, драма, криминал
Продолжительность: ~ 00:44
Перевод: полное дублирование (ТВ3 Россия)
Русские субтитры: нет
Субтитры: Отсутствуют
Режиссёр: Аллан Крекер, Тони Уормби, Сэнфорд Букстэйвер, Грег Яйтанес
В ролях: Эмили Дешанель, Дэвид Бореаназ, Михаэлла Конлин, Ти-Джей Тайн, Тамара Тейлор, Эрик Миллеган, Джон Фрэнсис Дейли, Джонатан Адамс, Патриция Белчер, Дэвид Гринман, Райан О`Нил
Описание: Главная героиня сериала — доктор Темперанс Бреннан (Эмили Дешанель), блестящий судебный антрополог работает на ФБР, а в свободное время пишет романы. Темперанс владеет особым методом идентификации останков, что позволяет ей докапываться до истины и раскрывать преступления даже тогда, когда обычные методы криминалистики уже не действуют. В буквальном смысле слова она находит «ключи» к преступлениям в костях жертвы. Именно поэтому, возможно, ее часто привлекают к расследованию нераскрытых дел или дел с большим сроком давности.
Очень часто Темперанс приходится работать в паре со специальным агентом того же бюро Сили Бутом из отдела по расследованию убийств (Дэвид Бореаназ). Бут, бывший армейский снайпер, весьма скептический относится и к науке, и к ее представителям, презрительно называя их «очкарики». Его точка зрения на раскрытие преступлений весьма проста: узнать правду можно лишь используя старомодные методы ведения дел, т.е. «работая» с теми, кто жив, — свидетелями и подозреваемыми. Столкновение личных и профессиональных интересов героев сериала «Кости» проходит центральной темой во всех сериях.
«Кости» относится к тем сериалам, в которых очень реалистично, но в тоже время с большой долей юмора показывается работа полиции и ведение следствия.

Качество: WEB-DLRip
Формат: AVI
Видео кодек: DivX
Аудио кодек: MP3
Видео: 624x352, 23,976 fps, 1002 kbps avg, 0.19 bit/pixel
Аудио: Rus: MP3, 2.0, 48 kHz, 128 kbps
Аудио 2: Eng: MP3, 2.0, 48 kHz, 128 kbps

Интересные факты о сериале:

- Литературной основой персонажей сериала является цикл детективных романов Кэти Райкс, главной героиней которых является доктор Бреннан.
- В конце 14 серии первого сезона Бреннан отдает Буту дело своих пропавших родителей. На фотографии, которую рассматривает Бут, сняты мать и отец Эмили Дешанель, актрисы играющей главную роль. Это оператор Калеб Дешанель и актриса Мери Джо Дешанель.

Отчет MediaInfo

Формат : AVI
Формат/Информация : Audio Video Interleave
Размер файла : 401 Мбайт
Продолжительность : 44 м.
Общий поток : 1272 Кбит/сек
Программа кодирования : VirtualDubMod 1.5.10.2 (build 2542/release)
Библиотека кодирования : VirtualDubMod build 2542/release
Видео
Идентификатор : 0
Формат : MPEG-4 Visual
Параметр BVOP формата : 1
Параметр QPel формата : Нет
Параметр GMC формата : Без точки перехода
Параметр матрицы формата : Default (H.263)
Режим смешивания : Сжатый битовый поток
Идентификатор кодека : DX50
Идентификатор кодека/Подсказка : DivX 5
Продолжительность : 44 м.
Битрейт : 1002 Кбит/сек
Ширина : 624 пикс.
Высота : 352 пикс.
Соотношение сторон : 16:9
Частота кадров : 23,976 кадр/сек
Цветовое пространство : YUV
Подвыборка цветности : 4:2:0
Битовая глубина : 8 бит
Тип развёртки : Прогрессивная
Метод сжатия : С потерями
Бит/(Пиксели*Кадры) : 0.190
Размер потока : 316 Мбайт (79%)
Библиотека кодирования : DivX 6.8.5 (UTC 2009-08-20)
Аудио #1
Идентификатор : 1
Формат : MPEG Audio
Версия формата : Version 1
Профиль формата : Layer 3
Режим : Joint stereo
Расширение режима : MS Stereo
Идентификатор кодека : 55
Идентификатор кодека/Подсказка : MP3
Продолжительность : 44 м.
Вид битрейта : Постоянный
Битрейт : 128 Кбит/сек
Каналы : 2 канала
Частота : 48,0 КГц
Метод сжатия : С потерями
Размер потока : 40,3 Мбайт (10%)
Выравнивание : Соединение по промежуткам
Продолжительность промежутка : 42 мс. (1,00 видеокадр)
Время предзагрузки промежутка : 504 ms
Аудио #2
Идентификатор : 2
Формат : MPEG Audio
Версия формата : Version 1
Профиль формата : Layer 3
Режим : Joint stereo
Расширение режима : MS Stereo
Идентификатор кодека : 55
Идентификатор кодека/Подсказка : MP3
Продолжительность : 44 м.
Вид битрейта : Постоянный
Битрейт : 128 Кбит/сек
Каналы : 2 канала
Частота : 48,0 КГц
Метод сжатия : С потерями
Размер потока : 40,3 Мбайт (10%)
Выравнивание : Соединение по промежуткам
Продолжительность промежутка : 42 мс. (1,00 видеокадр)
Время предзагрузки промежутка : 504 ms]

Скриншоты





Вне форума [Профиль] [ЛС]
Показать сообщения:    
Ответить на тему

Текущее время: Сегодня 07:07

Часовой пояс: GMT + 3



Вы не можете начинать темы
Вы не можете отвечать на сообщения
Вы не можете редактировать свои сообщения
Вы не можете удалять свои сообщения
Вы не можете голосовать в опросах
Вы не можете прикреплять файлы к сообщениям
Вы не можете скачивать файлы