Сегодня идет свободное скачивание без начисления Download

Клиника / Scrubs / Сезон 6 / Серии 1-22 (22) (Bill Lawrence) [2006-2007 г., Ситком, Драма, DVDRip, Rus, Eng] (MTV)

Ответить на тему
 
Автор
Сообщение

Omen ®

Стаж: 5 лет 6 месяцев

Сообщений: 186946

Торрент-статистика

Пост 22-Ноя-2012 10:19

[Цитировать]

Клиника - Сезон 6
Год выпуска: 2006-2007
Страна: США
Жанр: Ситком, драма
Продолжительность: 22 * 21 мин
Перевод: Профессиональный (многоголосый, закадровый) (MTV)
Создатели: Bill Lawrence
В ролях: Zach Braff, Sarah Chalke, Donald Faison, Neil Flynn, Ken Jenkins, John C. McGinley-Описание:
Отучившись четыре года в медицинской школе, Джон Дориан приходит работать интерном в клинику. Вместе с ним здесь же будет применять полученные знания и его лучший друг со времен колледжа Крис Терк. Не имеющие опыта практической работы, молодые специалисты сразу же погружаются в хаотический мир жизни больницы...-Шестой сезон:
В шестом сезоне Джей Ди примеряется к роли отца, поскольку узнает, что его бывшая девушка, доктор Ким Бриггс, беременна. У Тёрка и Карлы рождается дочь, Иззи. Эллиот готовится к свадьбе с Китом, хотя все еще сомневается из-за своих чувств к Джей Ди. У Доктора Кокса и Джордан рождается ещё один ребёнок, и в это же время умирает Лаверн.-Видео:
Новый HQ-рип, сделан автором раздачи. Исходник - лицензионные диски DVD9 (UK издание).
Отличается большим разрешением и битрейтом.
Sample
Качество: DVDRip
Видео: AVI, XviD, 640x480, 1500 kbps, 25 fps, 0.200 Bits/(Pixel*Frame)
Аудио 1: MP3, LAME, 128 kbps CBR, 48 KHz, stereo (Русский - MTV)
Аудио 2: MP3, LAME, 192 kbps CBR, 48 KHz, stereo (Английский)-

MediaInfo

General
Format : AVI
Format/Info : Audio Video Interleave
File size : 265 MiB
Duration : 20mn 16s
Overall bit rate : 1 829 Kbps
Writing application : VirtualDubMod 1.5.10.2 (build 2540/release)
Writing library : VirtualDubMod build 2540/release
Video
Format : MPEG-4 Visual
Format profile : Advanced Simple@L5
Format settings, BVOP : Yes
Format settings, QPel : No
Format settings, GMC : No warppoints
Format settings, Matrix : Default (H.263)
Muxing mode : Packed bitstream
Codec ID : XVID
Codec ID/Hint : XviD
Duration : 20mn 16s
Bit rate : 1 495 Kbps
Width : 640 pixels
Height : 480 pixels
Display aspect ratio : 4:3
Frame rate : 25.000 fps
Color space : YUV
Chroma subsampling : 4:2:0
Bit depth : 8 bits
Scan type : Progressive
Bits/(Pixel*Frame) : 0.195
Stream size : 217 MiB (82%)
Writing library : XviD 64
Audio #1
Format : MPEG Audio
Format version : Version 1
Format profile : Layer 3
Mode : Joint stereo
Mode extension : MS Stereo
Codec ID : 55
Codec ID/Hint : MP3
Duration : 20mn 15s
Bit rate mode : Constant
Bit rate : 128 Kbps
Channel(s) : 2 channels
Sampling rate : 48.0 KHz
Stream size : 18.6 MiB (7%)
Alignment : Aligned on interleaves
Interleave, duration : 40 ms (1.00 video frame)
Interleave, preload duration : 504 ms
Title : Russian
Writing library : LAME3.98r
Encoding settings : -m j -V 4 -q 0 -lowpass 17 -b 128
Audio #2
Format : MPEG Audio
Format version : Version 1
Format profile : Layer 3
Mode : Joint stereo
Mode extension : MS Stereo
Codec ID : 55
Codec ID/Hint : MP3
Duration : 20mn 16s
Bit rate mode : Constant
Bit rate : 192 Kbps
Channel(s) : 2 channels
Sampling rate : 48.0 KHz
Stream size : 27.8 MiB (10%)
Alignment : Aligned on interleaves
Interleave, duration : 40 ms (1.00 video frame)
Interleave, preload duration : 504 ms
Title : English
Writing library : LAME3.98r
Encoding settings : -m j -V 4 -q 0 -lowpass 18.6 -b 192

Скриншоты

Сравнения

1. 6 Сезон by Little.ck - DVDRip, 576x432, ~750Kbps
Сравнение: Little.ck S6 vs FixeR_m S6 - 1 (upscale to 640x480)-2. 6 Сезон by Little.ck - DVDRip, 512x384, ~1000Kbps
Сравнение: Little.ck S6 vs FixeR_m S6 - 2 (upscale to 640x480)
Вне форума [Профиль] [ЛС]
Показать сообщения:    
Ответить на тему

Текущее время: Сегодня 02:21

Часовой пояс: GMT + 3



Вы не можете начинать темы
Вы не можете отвечать на сообщения
Вы не можете редактировать свои сообщения
Вы не можете удалять свои сообщения
Вы не можете голосовать в опросах
Вы не можете прикреплять файлы к сообщениям
Вы не можете скачивать файлы