Сегодня идет свободное скачивание без начисления Download

Теория Большого Взрыва / The Big Bang Theory / Сезон: 5 / Серии: 1-24 (24) (Марк Сендроуски) [2011, Ситком, HDTVRip] rus sub от notabenoid

Ответить на тему
 
Автор
Сообщение

Omen ®

Стаж: 5 лет 7 месяцев

Сообщений: 185427

Торрент-статистика

Пост 22-Ноя-2012 10:19

[Цитировать]

Теория Большого Взрыва / The Big Bang Theory- Год выпуска: 2011
Страна: США
Жанр: Ситком
Продолжительность: 00:22:00
Перевод: оригинал
Русские субтитры: есть (notabenoid)-Режиссёр: Марк Сендроуски
В ролях: Джонни Галэки, Джим Парсонс, Саймон Хелберг, Кунал Нэйэр, Кейли Куоко, Кэрол Энн Сьюзи, Сара Гилберт, Марк Харелик, Сара Рю, Брайан Вэйд-Описание: Два блестящих физика, Леонард и Шелдон, «великие умы», которые понимают как «работает вселенная». Но их гениальность ничуть не помогает им общаться с людьми, особенно с женщинами. Всё начинает меняться, когда напротив них поселяется красавица Пенни. Когда Леонард и Шелдон встречают Пенни, Леонард сразу же начинает интересоваться ею. Он видит в общении с Пенни огромную перспективу, вплоть до любви, однако, Шелдон понимает, что мечтам его друга не суждено сбыться. Стоит также отметить пару странных друзей этих физиков: Воловец, который любит употреблять фразы на разных языках, включая русский и Раджеш Кутрапали, теряющий дар речи при виде женщин...-КиноПоиск | IMDb-Качество: HDTVRip
Формат: AVI
Видео кодек: XviD
Аудио кодек: MP3
Видео: 624x352 (1.77:1), 23.976 fps, XviD build 50, 1020 kbps avg, 0.19 bit/pixel
Аудио: 48 kHz, MPEG Layer 3, 2 ch, 128 kbps
-

Список серий

ep 01 - The Skank Reflex Analysis
ep 02 - The Infestation Hypothesis
ep 03 - The Pulled Groin Extrapolation
ep 04 - The Wiggly Finger Catalyst
ep 05 - The Russian Rocket Reaction
ep 06 - The Rhinitis Revelation
ep 07 - The Good Guy Fluctuation
ep 08 - The Isolation Permutation
ep 09 - The Ornithophobia Diffusion
ep 10 - The Flaming Spittoon Acquisition
ep 11 - The Speckerman Recurrence
ep 12 - The Shiny Trinket Maneuver
ep 13 - The Recombination Hypothesis
ep 14 - The Beta Test Initiation
ep 15 - The Friendship Contraction
ep 16 - The Vacation Solution
ep 17 - The Rothman Disintegration
ep 18 - The Werewolf Transformation
ep 19 - The Weekend Vortex
ep 20 - The Transporter Malfunction
ep 21 - The Transporter Malfunction
ep 22 - The Stag Convergence
ep 23 - The Launch Acceleration
ep 24 - The Countdown Reflection

Скриншоты


MediaInfo

Код:
General
[HDTVRip]\The.Big.Bang.Theory.S05E01.HDTV.XviD-ASAP.avi
Format                           : AVI
Format/Info                      : Audio Video Interleave
File size                        : 175 MiB
Duration                         : 21mn 11s
Overall bit rate                 : 1 154 Kbps
Writing application              : Some super fast AVI muxer
Video
ID                               : 0
Format                           : MPEG-4 Visual
Format profile                   : Advanced Simple@L5
Format settings, BVOP            : Yes
Format settings, QPel            : No
Format settings, GMC             : No warppoints
Format settings, Matrix          : Default (H.263)
Codec ID                         : XVID
Codec ID/Hint                    : XviD
Duration                         : 21mn 11s
Bit rate                         : 992 Kbps
Width                            : 624 pixels
Height                           : 352 pixels
Display aspect ratio             : 16:9
Frame rate                       : 23.976 fps
Resolution                       : 8 bits
Colorimetry                      : 4:2:0
Scan type                        : Progressive
Bits/(Pixel*Frame)               : 0.188
Stream size                      : 150 MiB (86%)
Writing library                  : XviD 70
Audio
ID                               : 1
Format                           : MPEG Audio
Format version                   : Version 1
Format profile                   : Layer 3
Codec ID                         : 55
Codec ID/Hint                    : MP3
Duration                         : 21mn 11s
Bit rate mode                    : Variable
Bit rate                         : 149 Kbps
Channel(s)                       : 2 channels
Sampling rate                    : 48.0 KHz
Stream size                      : 22.6 MiB (13%)
Alignment                        : Aligned on interleaves
Interleave, duration             : 24 ms (0.58 video frame)
Interleave, preload duration     : 38 ms

Внимание

Внимание! Раздача ведётся путём добавления новых серий; при каждом добавлении создаётся новый торрент. Чтобы начать докачку новой серии, пользователям необходимо сделать следующее:
(1) остановить скачивание,
(2) удалить старый торрент у себя из клиента (старые серии удалять не надо),
(3) скачать новый торрент и запустить его у себя в клиенте вместо старого, при этом указать клиенту путь в старую папку куда и должно происходить скачивание новых серий.
Ваш клиент при этом должен произвести хеширование (проверку) старой папки (если не производит сам - помогите ему сделать это), и будет докачивать только те серии которых у вас ещё нет. Старые серии при этом не удаляются, а продолжают раздаваться!
Eсли вы уже удалили старые серии, то предотвратить повторную закачку старых серий можно, отжав галочку в соответствующих местах при запуске нового торрента. По возможности, желательно не удалять старые серии как можно дольше чтобы релизёр не столько продолжал раздавать старые серии, а смог сконцентрироваться на новых.
-Добавлено: 24 серия
Вне форума [Профиль] [ЛС]
Похожие темы
Форум Тема Автор Торрент Отв. Посл. сообщение
./templates/default/images/folder_dl.gif Обучающее видео [Авторская раздача] IPv6 Теория и Практика [2014, RUS] Omen
1 | 0

0 | 851

11

2014-07-31 23:00
Omen Последнее
./templates/default/images/folder_dl.gif Обучающая и развивающая литература, учебники К.Э. Плохотников | Вычислительные методы. Теория и практика в среде MATLAB (2013) [+CD] [PDF] XP1971
1 | 0

0 | 3082

5

2017-06-10 11:39
XP1971 Последнее
Показать сообщения:    
Ответить на тему

Текущее время: Сегодня 16:23

Часовой пояс: GMT + 3



Вы не можете начинать темы
Вы не можете отвечать на сообщения
Вы не можете редактировать свои сообщения
Вы не можете удалять свои сообщения
Вы не можете голосовать в опросах
Вы не можете прикреплять файлы к сообщениям
Вы не можете скачивать файлы