Сегодня идет свободное скачивание без начисления Download

Как Я Встретил Вашу Маму / How I Met Your Mother / Сезон 7 / Серии 1-24 (24) (Картер Бейс) [2011 г., комедия, WEB-DLRip] (Кураж-Бамбей | Original | Sub)

Ответить на тему
 
Автор
Сообщение

Omen ®

Стаж: 5 лет 6 месяцев

Сообщений: 186946

Торрент-статистика

Пост 22-Ноя-2012 10:19

[Цитировать]

Как Я Встретил Вашу Маму / How I Met Your Mother-- Год выхода в эфир: 2011
Страна: США | CBS
Жанр: комедия
Продолжительность: ~ 00:22:00
Перевод: Профессиональный (одноголосый, закадровый) /Кураж-Бамбей/
Субтитры: есть (Русские / Английские)
Режиссер: Картер Бейс-В ролях: Джош Рэднор, Джейсон Сегел, Коби Смалдерс, Нил Патрик Хэррис, Эллисон Хэнниган и др.-Описание: How I met your mother - комедия про Теда (Джош Рэднор) и про то, как он влюбился. Все неприятности начинаются с того, что лучший друг Теда, Маршалл (Джейсон Сегел) вдруг неожиданно сообщил, что он хочет сделать предложение своей давней подруге, Лили (Эллисон Хэнниган), воспитательнице детского сада. К тому времени Тед понимает, что ему нужно прилагать больше усилий, если он действительно надеется найти свою настоящую любовь. Помогает ему в этих поисках его друг Барни (Нил Патрик Хэррис), убежденный холостяк, вечно со своим, иногда чересчур, мнением на все происходящее, со склонностью к костюмам и верным способом познакомиться с девушками. Когда Тед встречает Робин (Коби Смалдерс), он решает, что это любовь с первого взгляда, но у судьбы в запасе есть кое-что еще. Сериал представлен в форме повествования в будущем.-Качество: WEB-DLRip
Формат: AVI [сэмпл]
Видео кодек: XviD
Аудио кодек: AC3
Видео: 720*400 (1.80), 23.976 fps, XviD MPEG-4, ~1820 kbps, 0.26 bit/pixel
Аудио #1: 48 kHz, AC3 Dolby Digital, 3/2 (L,C,R,l,r) + LFE ch, ~384.00 kbps avg |Кураж-Бамбей|
Аудио #2: 48 kHz, AC3 Dolby Digital, 3/2 (L,C,R,l,r) + LFE ch, ~384.00 kbps avg |Original|- -- --

Список серий


-
1: The Best Man
2: The Naked Truth
3: Ducky tie
4: The Stinson Missile Crisis
5: Field Trip
6: Mystery vs. History
7: Noretta
8: The Slutty Pumpkin Returns
9: Disaster Averted
10: Tick tick tick...
11: The rebound girl
12: Symphony of Illumination
13: Tailgate
14: 46 minutes
15: The burning beekeeper
16: The drunk train
17: No pressure
18: Karma
19: The Broath
20: Trilogy Time
21: Now We're Even!
22: Good Crazy
23: Tell Me A Story
24: The Magician's Code
-

-

MEDiA iNFO

GeneralComplete name : E:\How I Met Your Mother - Season 7 [WEB-DLRip] (Кураж-Бамбей)\How.I.Met.Your.Mother.S07E01.WEB-DLRip.AC3.XviD.-SVM.aviFormat : AVIFormat/Info : Audio Video InterleaveFile size : 400 MiBDuration : 21mn 36sOverall bit rate : 2 590 KbpsWriting application : VirtualDubMod 1.5.10.2 (build 2540/release)Writing library : VirtualDubMod build 2540/release
VideoID : 0Format : MPEG-4 VisualFormat profile : Advanced Simple@L5Format settings, BVOP : 2Format settings, QPel : NoFormat settings, GMC : No warppointsFormat settings, Matrix : Default (MPEG)Muxing mode : Packed bitstreamCodec ID : XVIDCodec ID/Hint : XviDDuration : 21mn 36sBit rate : 1 811 KbpsWidth : 720 pixelsHeight : 400 pixelsDisplay aspect ratio : 16:9Frame rate : 23.976 fpsResolution : 8 bitsColorimetry : 4:2:0Scan type : ProgressiveBits/(Pixel*Frame) : 0.262Stream size : 280 MiB (70%)Writing library : XviD 1.2.1 (UTC 2008-12-04)
Audio #1ID : 1Format : AC-3Format/Info : Audio Coding 3Codec ID : 2000Duration : 21mn 32sBit rate mode : ConstantBit rate : 384 KbpsChannel(s) : 6 channelsChannel positions : Front: L C R, Surround: L R, LFESampling rate : 48.0 KHzStream size : 59.2 MiB (15%)Alignment : Split accross interleavesInterleave, duration : 42 ms (1.00 video frame)Interleave, preload duration : 500 ms
Audio #2ID : 2Format : AC-3Format/Info : Audio Coding 3Codec ID : 2000Duration : 21mn 32sBit rate mode : ConstantBit rate : 384 KbpsChannel(s) : 6 channelsChannel positions : Front: L C R, Surround: L R, LFESampling rate : 48.0 KHzStream size : 59.2 MiB (15%)Alignment : Split accross interleavesInterleave, duration : 42 ms (1.00 video frame)Interleave, preload duration : 500 ms

-

Внимание! Раздача ведётся путём добавления новых серий!

Внимание! Раздача ведётся путём добавления новых серий; при каждом добавлении создётся новый торрент. Чтобы начать докачку новой серии, пользователям необходимо сделать следующее:
(1) остановить скачивание,
(2) удалить старый торрент у себя из клиента (старые серии удалять не надо),
(3) скачать новый торрент и запустить его у себя в клиенте вместо старого, при этом указать клиенту путь в старую папку куда и должно происходить скачивание новых серий.
Ваш клиент при этом должен произвести хеширование (проверку) старой папки (если не производит сам - помогите ему сделать это), и будет докачивать только те серии которых у вас ещё нет. Старые серии при этом не удаляются, а продолжают раздаваться!
Eсли вы уже удалили старые серии, то предотвратить повторную закачку старых серий можно, отжав галочку в соответсвующих местах при запуске нового торрента.

-
-
Вне форума [Профиль] [ЛС]
Показать сообщения:    
Ответить на тему

Текущее время: Сегодня 16:03

Часовой пояс: GMT + 3



Вы не можете начинать темы
Вы не можете отвечать на сообщения
Вы не можете редактировать свои сообщения
Вы не можете удалять свои сообщения
Вы не можете голосовать в опросах
Вы не можете прикреплять файлы к сообщениям
Вы не можете скачивать файлы