Сегодня идет свободное скачивание без начисления Download

Анатомия Грей (Анатомия страсти) / Grey's Anatomy Сезон 9 эпизод 1-5 (??) (Шонда Раймс) [2012 г., драма, комедия, WEB-DLRip 400p] DVO (Кубик в Кубе)

Ответить на тему
 
Автор
Сообщение

Omen ®

Стаж: 5 лет 11 месяцев

Сообщений: 184329

Торрент-статистика

Пост 22-Ноя-2012 10:13

[Цитировать]

Анатомия страсти / Grey's Anatomy
Годы выпуска: 2012
Страна: США
Жанр: медицинская драма, комедия
Продолжительность: ~ 43 минуты
Перевод: Профессиональный двухголосый закадровый(Кубик в Кубе)
Субтитры: нет
Автор идеи: Шонда Раймс
-В ролях:
Эллен Помпео (Мередит Грей), Кэтрин Хайгл (Иззи Стивенс), Сандра О (Кристина Янг), Джастин Чэмберс (Алекс Карев), Кайлер Ли (Лекси Грей), Патрик Дэмпси (Дерек Шепард), Сара Рамирез (Кэлли Торрес), Эрик Дэйнс (Марк Слоан), Джеймс Пикенс мл. (Шеф Веббер), Чэндра Уилсон (Миранда Бэйли), Кевин МакКидд (Оуэн Хант), Джессика Кэпшоу (Аризона Роббинс)
Описание:
Продолжение знаменитой медицинской драмы о работе и личных отношениях хирургов сиэтлской больницы. Каждый день наполнен болью и счастьем, ссорами и примирениями, сложными дилеммами и необходимостью принять моментальное решение от которого зависит жизнь человека. В центре сюжета хирург - Мередит...
-Качество: WEB-DLRip
Формат: AVI
Видео: 720x400 (1.80:1), 23.976 fps, XviD build 65 ~1990 kbps avg, 0.29 bit/pixel
Аудио Rus: 48 kHz, AC3 Dolby Digital, 3/2 (L,C,R,l,r) + LFE ch, ~384.00 kbps avg
Аудио Eng: 48 kHz, AC3 Dolby Digital, 3/2 (L,C,R,l,r) + LFE ch, ~384.00 kbps avg
-
Релиз: &
Перевод: РГ "ЧП"
Озвучка: Кубик в кубе
Рип: ЛП
При поддержке:
- -

MI

General
Complete name : I:\Анатомия Грей Сезон 9 WEB-DLRip 400p](Кубик в Кубе)\Grey's.Anatomy.s09e01.rus.eng.avi
Format : AVI
Format/Info : Audio Video Interleave
File size : 856 MiB
Duration : 43mn 10s
Overall bit rate : 2 773 Kbps
Writing application : VirtualDubMod 1.5.10.2 (build 2540/release)
Writing library : VirtualDubMod build 2540/release
Video
ID : 0
Format : MPEG-4 Visual
Format profile : Advanced Simple@L5
Format settings, BVOP : 1
Format settings, QPel : No
Format settings, GMC : No warppoints
Format settings, Matrix : Default (MPEG)
Codec ID : XVID
Codec ID/Hint : XviD
Duration : 43mn 10s
Bit rate : 1 991 Kbps
Width : 720 pixels
Height : 400 pixels
Display aspect ratio : 16:9
Frame rate : 23.976 fps
Color space : YUV
Chroma subsampling : 4:2:0
Bit depth : 8 bits
Scan type : Progressive
Compression mode : Lossy
Bits/(Pixel*Frame) : 0.288
Stream size : 615 MiB (72%)
Writing library : XviD 65
Audio #1
ID : 1
Format : AC-3
Format/Info : Audio Coding 3
Mode extension : CM (complete main)
Codec ID : 2000
Duration : 43mn 10s
Bit rate mode : Constant
Bit rate : 384 Kbps
Channel(s) : 6 channels
Channel positions : Front: L C R, Side: L R, LFE
Sampling rate : 48.0 KHz
Bit depth : 16 bits
Compression mode : Lossy
Stream size : 119 MiB (14%)
Alignment : Split accross interleaves
Interleave, duration : 42 ms (1.00 video frame)
Interleave, preload duration : 500 ms
Audio #2
ID : 2
Format : AC-3
Format/Info : Audio Coding 3
Mode extension : CM (complete main)
Codec ID : 2000
Duration : 43mn 10s
Bit rate mode : Constant
Bit rate : 384 Kbps
Channel(s) : 6 channels
Channel positions : Front: L C R, Side: L R, LFE
Sampling rate : 48.0 KHz
Bit depth : 16 bits
Compression mode : Lossy
Stream size : 119 MiB (14%)
Alignment : Split accross interleaves
Interleave, duration : 42 ms (1.00 video frame)
Interleave, preload duration : 500 ms

Скриншоты



Внимание! Раздача ведётся путём добавления новых серий!

Внимание! Раздача ведётся путём добавления новых серий; при каждом добавлении создётся новый торрент. Чтобы начать докачку новой серии, пользователям необходимо сделать следующее: (1) остановить скачивание, (2) удалить старый торрент у себя из клиента (старые серии удалять не надо), (3) скачать новый торрент и запустить его у себя в клиенте вместо старого, при этом указать клиенту путь в старую папку куда и должно происходить скачивание новых серий.
Ваш клиент при этом должен произвести хеширование (проверку) старой папки (если не производит сам - помогите ему сделать это), и будет докачивать только те серии которых у вас ещё нет. Старые серии при этом не удаляются, а продолжают раздаваться!
Eсли вы уже удалили старые серии, то предотвратить повторную закачку старых серий можно, отжав галочку в соответсвующих местах при запуске нового торрента.
Как закачать отдельный файл из торрента или докачать ранее пропущенные файлы торрента!
Вне форума [Профиль] [ЛС]
Похожие темы
Форум Тема Автор Торрент Отв. Посл. сообщение
./templates/default/images/folder_dl.gif Компьютерная литература Анатолий Косарев | Создание сайтов 4.0. Новейшие технологии высоких продаж. Разработчикам и заказчикам (2018) [PDF, RTF] }{@R0N
2 | 0

0 | 319

3

2018-10-11 13:23
}{@R0N Последнее
Показать сообщения:    
Ответить на тему

Текущее время: Сегодня 15:04

Часовой пояс: GMT + 3



Вы не можете начинать темы
Вы не можете отвечать на сообщения
Вы не можете редактировать свои сообщения
Вы не можете удалять свои сообщения
Вы не можете голосовать в опросах
Вы не можете прикреплять файлы к сообщениям
Вы не можете скачивать файлы