Сегодня идет свободное скачивание без начисления Download

Футурама / Futurama / Сезон 6 / Серия 1-13 (26) (Мэтт Гроунинг / Matt Groening) [2010 г., Мультфильм, комедия, фантастика, BDRip 1080p] [2x2, LostFilm, Кубик в Кубе, VO-Production]

Ответить на тему
 
Автор
Сообщение

Omen ®

Стаж: 4 года 10 месяцев

Сообщений: 190643

Торрент-статистика

Пост 22-Ноя-2012 10:12

[Цитировать]

Футурама / Futurama
Сезон 6-Год выпуска: 2010
Страна: США
Жанр: Мультфильм, комедия, фантастика
Продолжительность: ~ 22 мин. серия
Перевод: Профессиональный (многоголосый закадровый) 2x2, LostFilm, Кубик в Кубе, VO-Production
Русские субтитры: Русские, английские
Автор идеи: Мэтт Гроунинг / Matt Groening
Роли озвучивали: Билли Уэст, Кейти Сэгал, Джон ДиМаджио, Фил ЛаМарр, Лоурэн Том и др.-Описание: Сериал начинается с того, что разносчик пиццы из Нью-Йорка Филипп Джей Фрай случайно, как это кажется на первый взгляд, был заморожен в криогенной камере ровно в 00 часов 00 минут 00 секунд 1 января 2000 года. Он был разморожен тысячу лет спустя, 31 декабря 2999 года, и обнаружил себя в городе будущего Нью-Нью-Йорке. Знакомясь со своей будущей коллегой Турангой Лилой, Фрай пытается избежать принудительного назначения на работу курьером, кем он и был в прошлой жизни, и внедрения ему карьерного чипа — микросхемы, вшиваемой под кожу и определяющей род занятий своего носителя. Лила, в это время работающая инспектором по раздаче профессий, догоняя Фрая, чтобы вживить ему чип, в результате выслушивания речей Фрая о его прошлой никчемной жизни курьером, отказывается от работы инспектора, которая ей не по душе, и вместе они находят очень дальнего потомка Фрая (его пра-пра-пра-…-пра-внучатого племянника) Хьюберта Фарнсворта — маразматичного 160-летнего гениального ученого-склеротика, который берет их на работу в свою небольшую компанию «Межпланетный экспресс», занимающуюся межгалактическими грузоперевозками, на должность курьера. «Межпланетный экспресс» — это маленький бизнес профессора, окупающий его гениальные, но иногда весьма сомнительные исследования и изобретения.-кинопоиск | imdb-Качество: BDRip | CtrlHD [Sample]
Формат: MKV
Видео кодек: H.264
Видео: 1920x1080, 23.976 fps, ~6522 Kbps
Аудио №1: Русский AC3, 48.0 kHz, 2.0 ch, ~192.00 kbps | 2x2
Аудио №2: Русский AC3, 48.0 kHz, 2.0 ch, ~192.00 kbps | LostFilm
Аудио №3: Русский AC3, 48.0 kHz, 2.0 ch, ~192.00 kbps | Кубик в Кубе
Аудио №4: Русский AC3, 48.0 kHz, 5.1 ch, ~384.00 kbps | Vo-production
Аудио №5: Английский DTS, 48.0 kHz, 5.1 ch, ~1510.00 kbps
Аудио №6: Английский AAC, 48.0 kHz, 2.0 ch, ~224.00 kbps avg | Commentary
Субтитры: Русский, английский-Скриншоты:

Список серий

E01. Rebirth (Перерождение)
E02. In-A-Gadda-Da-Leela (В Лилейском саду)
E03. Attack of the Killer App (Атака убойной проги)
E04. Proposition Infinity (Поправка «Бесконечность»)
E05. The Duh-Vinci Code (Код нда Винчи)
E06. Lethal Inspection (Смертельный осмотр)
E07. The Late Philip J. Fry (Опаздывающий Филип Дж. Фрай)
E08. That Darn Katz! (Чёртовы Коты!)
E09. A Clockwork Origin (Происхождение по часовому механизму)
E10. The Prisoner of Benda (Пленник Бендера)
E11. Lrrreconcilable Ndndifferences (Совместимые Различия Лррра и Нднд)
E12. The Mutants Are Revolting (Мутанты протестуют)
E13. The Futurama Holiday Spectacular (Захватывающие праздники Футурамы)
E14. The Silence of the Clamps (Молчание Клешней)
E15. Mobius Dick (Мебиус Дик)
E16. Law and Oracle (Закон и Оракул)
E17. Benderama (Бендерама)
E18. The Tip of the Zoidberg (Совет Зойдберга)
E19. Ghost in the Machines (Призрак в машинах)
E20. Neutopia (Неутопия)
E21. Yo Leela Leela (Привет, Лила, Лила)
E22. Fry am the Egg Man (Фрай, хранитель яйца)
E23. All the Presidents' Heads (Все президентские головы)
E24. Cold Warriors (Простуженные воины)
E25. Overclockwise (По часовой стрелке)
E26. Reincarnation (Реинкарнация)

mi

Код:
General
Unique ID                        : 209235939165547140735417722298027936817 (0x9D696045FF9951709DA641B227530C31)
Complete name                    : Futurama.S06.1080p.BDRip.4xRus.Eng\Futurama.S06E01.1080p.BDRip.4xRus.Eng.mkv
Format                           : Matroska
File size                        : 1.37 GiB
Duration                         : 21mn 40s
Overall bit rate                 : 9 052 Kbps
Movie name                       : E01. Rebirth
Encoded date                     : UTC 2011-05-02 18:05:42
Writing application              : mkvmerge v4.6.0 ('Still Crazy After All These Years') built on Mar 10 2011 02:50:32
Writing library                  : libebml v1.2.0 + libmatroska v1.1.0
Video
ID                               : 1
Format                           : AVC
Format/Info                      : Advanced Video Codec
Format profile                   : High@L4.1
Format settings, CABAC           : Yes
Format settings, ReFrames        : 4 frames
Format settings, GOP             : M=1, N=48
Codec ID                         : V_MPEG4/ISO/AVC
Duration                         : 21mn 40s
Nominal bit rate                 : 6 513 Kbps
Width                            : 1 920 pixels
Height                           : 1 080 pixels
Display aspect ratio             : 16:9
Frame rate                       : 23.976 fps
Color space                      : YUV
Chroma subsampling               : 4:2:0
Bit depth                        : 8 bits
Scan type                        : Progressive
Bits/(Pixel*Frame)               : 0.131
Title                            : Futurama S06 1080p CtrlHD
Writing library                  : x264 core 112 r1834 a51816a
Encoding settings                : cabac=1 / ref=4 / deblock=1:1:1 / analyse=0x3:0x133 / me=umh / subme=10 / psy=1 / psy_rd=1.20:0.00 / mixed_ref=1 / me_range=64 / chroma_me=1 / trellis=2 / 8x8dct=1 / cqm=0 / deadzone=21,11 / fast_pskip=0 / chroma_qp_offset=-2 / threads=12 / sliced_threads=0 / nr=0 / decimate=0 / interlaced=0 / constrained_intra=0 / bframes=9 / b_pyramid=2 / b_adapt=2 / b_bias=0 / direct=3 / weightb=1 / open_gop=0 / weightp=2 / keyint=250 / keyint_min=23 / scenecut=40 / intra_refresh=0 / rc=2pass / mbtree=0 / bitrate=6513 / ratetol=1.0 / qcomp=0.60 / qpmin=0 / qpmax=51 / qpstep=4 / cplxblur=20.0 / qblur=0.5 / ip_ratio=1.40 / pb_ratio=1.30 / aq=2:0.60
Language                         : English
Audio #1
ID                               : 2
Format                           : AC-3
Format/Info                      : Audio Coding 3
Mode extension                   : CM (complete main)
Codec ID                         : A_AC3
Duration                         : 21mn 40s
Bit rate mode                    : Constant
Bit rate                         : 192 Kbps
Channel(s)                       : 2 channels
Channel positions                : Front: L R
Sampling rate                    : 48.0 KHz
Bit depth                        : 16 bits
Compression mode                 : Lossy
Stream size                      : 29.8 MiB (2%)
Title                            : RUS, 2x2
Language                         : Russian
Audio #2
ID                               : 3
Format                           : AC-3
Format/Info                      : Audio Coding 3
Mode extension                   : CM (complete main)
Codec ID                         : A_AC3
Duration                         : 21mn 40s
Bit rate mode                    : Constant
Bit rate                         : 192 Kbps
Channel(s)                       : 2 channels
Channel positions                : Front: L R
Sampling rate                    : 48.0 KHz
Bit depth                        : 16 bits
Compression mode                 : Lossy
Stream size                      : 29.8 MiB (2%)
Title                            : RUS, LostFilm
Language                         : Russian
Audio #3
ID                               : 4
Format                           : AC-3
Format/Info                      : Audio Coding 3
Mode extension                   : CM (complete main)
Codec ID                         : A_AC3
Duration                         : 21mn 40s
Bit rate mode                    : Constant
Bit rate                         : 192 Kbps
Channel(s)                       : 2 channels
Channel positions                : Front: L R
Sampling rate                    : 48.0 KHz
Bit depth                        : 16 bits
Compression mode                 : Lossy
Stream size                      : 29.8 MiB (2%)
Title                            : RUS, Kubik v kube
Language                         : Russian
Audio #4
ID                               : 5
Format                           : AC-3
Format/Info                      : Audio Coding 3
Mode extension                   : CM (complete main)
Codec ID                         : A_AC3
Duration                         : 21mn 40s
Bit rate mode                    : Constant
Bit rate                         : 384 Kbps
Channel(s)                       : 6 channels
Channel positions                : Front: L C R, Side: L R, LFE
Sampling rate                    : 48.0 KHz
Bit depth                        : 16 bits
Compression mode                 : Lossy
Stream size                      : 59.6 MiB (4%)
Title                            : RUS, Vo-production
Language                         : Russian
Audio #5
ID                               : 6
Format                           : DTS
Format/Info                      : Digital Theater Systems
Codec ID                         : A_DTS
Duration                         : 21mn 40s
Bit rate mode                    : Constant
Bit rate                         : 1 510 Kbps
Channel(s)                       : 6 channels
Channel positions                : Front: L C R, Side: L R, LFE
Sampling rate                    : 48.0 KHz
Bit depth                        : 24 bits
Compression mode                 : Lossy
Delay relative to video          : 11ms
Stream size                      : 234 MiB (17%)
Title                            : ENG
Language                         : English
Audio #6
ID                               : 7
Format                           : AAC
Format/Info                      : Advanced Audio Codec
Format profile                   : HE-AAC / LC
Codec ID                         : A_AAC
Duration                         : 21mn 40s
Channel(s)                       : 2 channels
Channel positions                : Front: L R
Sampling rate                    : 48.0 KHz / 24.0 KHz
Compression mode                 : Lossy
Title                            : ENG, Commentary
Language                         : English
Text #1
ID                               : 8
Format                           : UTF-8
Codec ID                         : S_TEXT/UTF8
Codec ID/Info                    : UTF-8 Plain Text
Title                            : RUS
Language                         : Russian
Text #2
ID                               : 9
Format                           : UTF-8
Codec ID                         : S_TEXT/UTF8
Codec ID/Info                    : UTF-8 Plain Text
Title                            : ENG
Language                         : English
Menu
00:00:00.000                     : en:00:00:00.000
00:07:12.557                     : en:00:07:12.557
00:14:26.824                     : en:00:14:26.824
00:21:07.475                     : en:00:21:07.475
-06.05.11 Торрент перезалит. Добавлен перевод 2х2.
Вне форума [Профиль] [ЛС]
Показать сообщения:    
Ответить на тему

Текущее время: Сегодня 07:54

Часовой пояс: GMT + 3



Вы не можете начинать темы
Вы не можете отвечать на сообщения
Вы не можете редактировать свои сообщения
Вы не можете удалять свои сообщения
Вы не можете голосовать в опросах
Вы не можете прикреплять файлы к сообщениям
Вы не можете скачивать файлы