Сегодня идет свободное скачивание без начисления Download

Утиные Истории / Duck Tales / серии 51-65 [1987 г., Мультсериал, SATRip]

Ответить на тему
 
Автор
Сообщение

Omen ®

Стаж: 4 года 10 месяцев

Сообщений: 190643

Торрент-статистика

Пост 22-Ноя-2012 10:11

[Цитировать]

Duck Tales (Утиные истории)
Год выпуска: 1987
Страна: USA
Жанр: Мультфильм
Продолжительность: ~20 мин. серия
Перевод: Полное дублирование (профессиональный), часть серий - одноголосый
Описание: Мультсериал о дядюшке Скрудже, мультимиллиардере, большом добряке, скряге и бизнесмене, и его трех племянниках-утятах. В каждой истории дядюшка влипает в какие-нибудь неприятности, а верные племянники спасают его самыми невероятными способами с множеством уморительных приключений!
Доп. информация: Все 65 серий первого сезона!
Рипы не от DisneyJazz, но качество отличное!
Качество: SAT-Rip
Формат: AVI
Видео кодек: XviD
Аудио кодек: MP3
Видео: MPEG-4 Visual at 1426 Кбит/сек, 640 x 480 (1.333) at 25.000 fps
Аудио: MPEG Audio at 64,0 Кбит/сек, 1 канал, 48,0 КГц        

MediaInfo

Код:
Общее
Полное имя                               : E:\uTorrent\DT\DT_51.avi
Формат                                   : AVI
Формат/Информация                        : Audio Video Interleave
Размер файла                             : 218 Мбайт
Продолжительность                        : 20 м.
Общий поток                              : 1500 Кбит/сек
Программа кодирования                    : Nandub v1.0rc2
Библиотека кодирования                   : VirtualDub build 24415/release
Видео
Идентификатор                            : 0
Формат                                   : MPEG-4 Visual
Профиль формата                          : Simple@L3
Параметр BVOP формата                    : 1
Параметр QPel формата                    : Нет
Параметр GMC формата                     : Без точки перехода
Параметр матрицы формата                 : Default (H.263)
Режим смешивания                         : Сжатый битовый поток
Идентификатор кодека                     : XVID
Идентификатор кодека/Подсказка           : XviD
Продолжительность                        : 20 м.
Битрейт                                  : 1426 Кбит/сек
Ширина                                   : 640 пикселей
Высота                                   : 480 пикселей
Соотношение сторон                       : 4:3
Частота кадров                           : 25,000 кадров/сек
Цветовое пространство                    : YUV
Субдискретизация насыщенности            : 4:2:0
Битовая глубина                          : 8 бит
Тип развёртки                            : Прогрессивная
Метод сжатия                             : С потерями
Бит/(Пиксели*Кадры)                      : 0.186
Размер потока                            : 208 Мбайт (95%)
Библиотека кодирования                   : XviD 1.1.0 Beta2 (UTC 2005-04-04)
Аудио
Идентификатор                            : 1
Формат                                   : MPEG Audio
Версия формата                           : Version 1
Профиль формата                          : Layer 3
Идентификатор кодека                     : 55
Идентификатор кодека/Подсказка           : MP3
Продолжительность                        : 20 м.
Продолжительность оригинала              : 20 м.
Вид битрейта                             : Постоянный
Битрейт                                  : 64,0 Кбит/сек
Каналы                                   : 1 канал
Частота                                  : 48,0 КГц
Метод сжатия                             : С потерями
Размер потока                            : 9,32 Мбайт (4%)
Выравнивание                             : Разделение по промежуткам
Продолжительность промежутка             : 40  мс. (1,00 видеокадр)
Время предзагрузки промежутка            : 500  мс.

Утиные Истории / Duck Tales (Первый сезон)

51. Волшебное зеркало Магики / Заберите меня из игры
52. Утята в будущем
53. Король джунглей
54. Первая авария Зигзага
55. При удаче - гривенника хватит
56. Железная маска
57. Неуязвимый великан
58. Честолюбцы
59. Ни капельки не страшно
60. Доктор Джекил и мистер Макдак
61. Дело о десяти центах
62. Повсюду шпионы
63. Свистать всех наверх
64. Марафон фильмов ужасов
65. Племянники против Купидона
За релиз отдельное спасибо DGunn!
Здесь выложены серии 51-65
Вне форума [Профиль] [ЛС]
Показать сообщения:    
Ответить на тему

Текущее время: Сегодня 10:27

Часовой пояс: GMT + 3



Вы не можете начинать темы
Вы не можете отвечать на сообщения
Вы не можете редактировать свои сообщения
Вы не можете удалять свои сообщения
Вы не можете голосовать в опросах
Вы не можете прикреплять файлы к сообщениям
Вы не можете скачивать файлы