Сегодня идет свободное скачивание без начисления Download

Том и Джерри / Tom and Jerry / Выпуски 2,3,6 / Серии: 23-62, 128-140 (Уильям Ханна / William Hanna, Джозеф Барбера / Joseph Barbera) [1940-1967, комедия, семейный, VHSRip] AVO (Максим Ошурков)

Ответить на тему
 
Автор
Сообщение

Omen ®

Стаж: 5 лет

Сообщений: 190529

Торрент-статистика

Пост 22-Ноя-2012 10:10

[Цитировать]

-Том и Джерри / Tom and Jerry- Английское название: Tom and Jerry
Русские названия: Том и Джерри
Год выпуска: 1940-1967
Страна: США.
Жанр: Комедия, семейный.
Продолжительность: ТВ (163 эп.), ~ 23 минуты
Перевод: Авторский (Одноголосный) Максим Ошурков
Субтитры: Нет
Режиссёр: Уильям Ханна / William Hanna, Джозеф Барбера / Joseph Barbera
Описание: Кот Том и мышонок Джерри - парочка, прославившаяся на весь мир. Уже несколько десятков лет Том гоняется за Джерри с неослабевающим азартом. Том придумывает всё новые и новые хитроумные уловки, чтобы поймать Джерри, но мышонок всё время выкручивается с не меньшей изобретательностью.
-Доп. Информация:
Второй и Третий выпуски Тома и Джерри в озвучке Максима Ошуркова. Так же здесь присутствуют VHS версии серий которые все так ищут - The Cat And The Mermouse, Love That Pup, Jerry’s Diary. К сожалению кассета 3 выпуска переписанная, поэтому качество картинки и звука иногда хромает. Ещё в ней не хватает 63-69 эпизодов. Но как говориться, чем располагаем) В 6 выпуске Hi-Fi звук, однако кассете уже лет 10 минимум, поэтому в правом канале наблюдается небольшой треск. В этом же выпуске были предоставлены несколько короткометражек выпущенных Metro-Goldwyn-Mayer. Здесь они присутствуют, причём "Беспокойная песенка"
и "Фрагмент из фильма "Опасно когда мокро"" в какой то степени относятся к Тому и Джерри.
Сэмпл
Качество: VHSRip
Формат видео: MPEG2
Контейнер: MPG
Аудио кодек: MP2
Видео: MPEG2 Video 720x576 (4:3) 25.00fps 9500Kbps
Аудио:
  • русская: MPEG Layer 2 48000Hz stereo 256Kbps [Максим Ошурков]

-

Наличие серий в раздаче

023. Том Влюбился
024. Молочный Путь
025. Опять Попался
026. Ночная Серенада
027. Кот - Браконьер
028. Дружеская Вечеринка
029. Кошачий Концерт
030. Доктор Джекил и Мистер Маус
031. Надувной Том
032. Мышь в Доме
033. Мышь Невидимка
034. Том и Канарейка
035. Хрупкое Перемирие
036. Том на пенсии
037. Профессор Том
038. Мышиная Уборка
039. Кот в мелкую крапинку
040. Птенец в гнезде у Мышонка
041. Крошка Сиротка
042. Райский Кот
043. Кот и мышь-русалка
044. Щенячий Восторг
045. Дневник Джерри
046. Игроки в теннис
047. Прекрасный Утёнок
048. Кошачья тусовка
049. Техасец Том
050. Джерри и Лев
051. Безопасность - дело второе
052. Концерт в Голливуде
053. Кота подставили
054. Кот - бильярдист
055. Кот - казанова
056. Джерри и Золотая Рыбка
057. Кузен Джерри
058. Том засоня
059. Пятница и Робинзон
060. Грязный щенок
061. Контуженый кот
062. Тихий Час

....
128. Мышонок в Пент-Хаусе
129. Кот - наверху, мышонок - внизу
130. Это уже не лечится
131. Мышонок клюнул
132. Он всё-таки любит меня
133. Джерри - защитник котёнка
134. О, Сладкая мышиная жизнь
135. Энергия Тома
136. Камень преткновения
137. Свой среди чужих
138. Мышонок - Иллюзионист
139. Я просто без ума от Джерри
140. Бремя кошачьих страстей

Расположение серий в Выпусках

Выпуск 02
023. Том Влюбился
024. Молочный Путь
025. Опять Попался
026. Ночная Серенада
027. Кот - Браконьер
028. Дружеская Вечеринка
029. Кошачий Концерт
030. Доктор Джекил и Мистер Маус
031. Надувной Том
032. Мышь в Доме
033. Мышь Невидимка
034. Том и Канарейка
035. Хрупкое Перемирие
036. Том на пенсии
037. Профессор Том
038. Мышиная Уборка
039. Кот в мелкую крапинку
040. Птенец в гнезде у Мышонка
041. Крошка Сиротка
042. Райский Кот
043. Кот и мышь-русалка
044. Щенячий Восторг
045. Дневник Джерри

Выпуск 03
046. Игроки в теннис
047. Прекрасный Утёнок
048. Кошачья тусовка
049. Техасец Том
050. Джерри и Лев
051. Безопасность - дело второе
052. Концерт в Голливуде
053. Кота подставили
054. Кот - бильярдист
055. Кот - казанова
056. Джерри и Золотая Рыбка
057. Кузен Джерри
058. Том засоня
059. Пятница и Робинзон
060. Грязный щенок
061. Контуженый кот
062. Тихий Час

Выпуск 06
Капитан и Мальчишки: Вот так лев!
Джем сейшн
Галлопирующие Дамы
Гусь Отправляется на Юг
Полисмэн Пуч
Псы на войне
Беспокойная песенка
Фрагмент из фильма "Опасно когда мокро"
128. Мышонок в Пент-Хаусе
129. Кот - наверху, мышонок - внизу
130. Это уже не лечится
131. Мышонок клюнул
132. Он всё-таки любит меня
133. Джерри - защитник котёнка
134. О, Сладкая мышиная жизнь
135. Энергия Тома
136. Камень преткновения
137. Свой среди чужих
138. Мышонок - Иллюзионист
139. Я просто без ума от Джерри
140. Бремя кошачьих страстей

Подробные технические данные

GeneralComplete name : X:\XXXXXX\Том и Джерри (Выпуск 02) {Максим Ошурков}.mpgFormat : MPEG-PSFile size : 12.0 GiBDuration : 2h 53mnOverall bit rate : 9 914 Kbps
VideoID : 224 (0xE0)Format : MPEG VideoFormat version : Version 2Format profile : Main@MainFormat settings, BVOP : YesFormat settings, Matrix : DefaultDuration : 2h 53mnBit rate mode : ConstantBit rate : 9 264 KbpsNominal bit rate : 9 500 KbpsWidth : 720 pixelsHeight : 576 pixelsDisplay aspect ratio : 4:3Frame rate : 25.000 fpsStandard : PALResolution : 8 bitsColorimetry : 4:2:0Scan type : InterlacedScan order : Top Field FirstBits/(Pixel*Frame) : 0.894Stream size : 11.2 GiB (93%)
AudioID : 192 (0xC0)Format : MPEG AudioFormat version : Version 1Format profile : Layer 2Duration : 2h 53mnBit rate mode : ConstantBit rate : 256 KbpsChannel(s) : 2 channelsSampling rate : 48.0 KHzVideo delay : -28msStream size : 318 MiB (3%)
Вне форума [Профиль] [ЛС]
Похожие темы
Форум Тема Автор Торрент Отв. Посл. сообщение
./templates/default/images/folder_dl.gif Мультфильмы Том и Джерри: Робин Гуд и Мышь-Весельчак / Tom and Jerry: Robin Hood and His Merry Mouse (Спайк Брандт / Spike Brandt, Тони Червоне / Tony Cervone) [2012, США, мультфильм, семейный, BDRemux 1080p] Omen
1 | 0

0 | 744

6

2012-11-22 10:07
Omen Последнее
./templates/default/images/folder_dl.gif Обучающее видео Сергей Брежнев | Мастер-класс по работе с цветом и тонировке (2014) PCRec (H.264) Omen
1 | 0

0 | 2112

51

2014-10-19 12:32
Omen Последнее
Показать сообщения:    
Ответить на тему

Текущее время: Сегодня 10:41

Часовой пояс: GMT + 3



Вы не можете начинать темы
Вы не можете отвечать на сообщения
Вы не можете редактировать свои сообщения
Вы не можете удалять свои сообщения
Вы не можете голосовать в опросах
Вы не можете прикреплять файлы к сообщениям
Вы не можете скачивать файлы