Сегодня идет свободное скачивание без начисления Download

Симпсоны / The Simpsons (Сезон 22, Серия 1-22 (22)) (Мэтт Гроунинг) [2010 г., мультфильм, комедия, WEB-DL 720p] [Озвучка VO-Production] [rus, eng subs]

Ответить на тему
 
Автор
Сообщение

Omen ®

Стаж: 4 года 10 месяцев

Сообщений: 190643

Торрент-статистика

Пост 22-Ноя-2012 10:10

[Цитировать]

Симпсоны / The Simpsons [Season 22]
«Just a product of society that's lost its good manners.»
- Год выпуска: 2010
Страна: США | 20th Century Fox Television
Жанр: мультфильм, комедия
Продолжительность: ~00:22 x22 | 22 x750 МБ
Перевод: Профессиональный (многоголосый, закадровый) - VO-Production
Оригинальная дорожка: Английская
Субтитры: русские (спасибо Runid75), английские (16-22 эпизоды)-Автор идеи: Мэтт Гроунинг
В ролях: Гомер Симпсон, Мардж Симпсон, Барт Симпсон, Лиза Симпсон, Эйб «Дедушка» Симпсон, Недвард «Нед» Фландерс, Милхаус Ван Хутен, Апу Нахасапимапетилон, Клэнси Виггам, Ральф Виггам, Джулиус «Доктор» Хибберт, Нельсон Манц, Ленни Леонард, Карл Карлсон, Марион Энтони «Жирный Тони» Д’Амико, Хершель Шмойкел Пинкус Крастофски (Клоун Красти), Мо Сизлак, Барни Гамбл, Даффмен и др.-Описание: Мультфильм — пародия на американский уклад жизни. Cемейство Симпсонов состоит из пяти членов: папаша Гомер, мать семейства Мардж, их дочери Лиза и Мэгги и несносный подросток Барт.-Релиз подготовили: D2T (1-7 серии) & uxTuaHgp (8-22 серии)-Качество: iTunes WEB-DL 720p
Формат: MKV
Видео кодек: H.264
Аудио кодек: AC3
Видео: 1280x720, 23.976 fps, ~4Mbps, 0.178 bit/pixel
Аудио #1: AC3 2.0, 48 KHz, 192 kbps |VO-Production|
Аудио #2: AC3 5.1, 48 KHz, 384 kbps |Оригинальная дорожка|-

Список серий

  • Elementary School Musical
  • Loan-a-Lisa
  • Money Bart
  • Treehouse of Horror XXI
  • Lisa Simpson, This Isn't Your Life
  • The Fool Monty
  • How Munched is That Birdie in the Window
  • The Fight Before Christmas
  • Donnie Fatso
  • Moms I'd Like To Forget
  • Flaming Moe
  • Homer The Father
  • The Blue and the Gray
  • Angry Dad: The Movie
  • The Scorpion’s Tale
  • A Midsummer’s Nice Dream
  • Love Is A Many Strangled Thing
  • The Great Simpsina
  • The Real Housewives of Fat Tony
  • Homer Scissorhands
  • 500 Keys
  • The Ned-Liest Catch

MI

Код:
Format                           : Matroska
File size                        : 795 MiB
Duration                         : 24mn 13s
Overall bit rate                 : 4 591 Kbps
Encoded date                     : UTC 2011-02-25 13:43:25
Writing application              : mkvmerge v2.5.3 ('Boogie') built on Mar  7 2009 15:00:41
Writing library                  : libebml v0.7.7 + libmatroska v0.8.1
Video
ID                               : 1
Format                           : AVC
Format/Info                      : Advanced Video Codec
Format profile                   : High@L3.1
Format settings, CABAC           : No
Format settings, ReFrames        : 2 frames
Codec ID                         : V_MPEG4/ISO/AVC
Duration                         : 24mn 13s
Bit rate mode                    : Variable
Bit rate                         : 3 924 Kbps
Width                            : 1 280 pixels
Height                           : 720 pixels
Display aspect ratio             : 16:9
Frame rate                       : 23.976 fps
Color space                      : YUV
Chroma subsampling               : 4:2:0
Bit depth                        : 8 bits
Scan type                        : Progressive
Bits/(Pixel*Frame)               : 0.178
Stream size                      : 680 MiB (85%)
Language                         : English
Color primaries                  : BT.709-5, BT.1361, IEC 61966-2-4, SMPTE RP177
Transfer characteristics         : BT.709-5, BT.1361
Matrix coefficients              : BT.709-5, BT.1361, IEC 61966-2-4 709, SMPTE RP177
Audio #1
ID                               : 2
Format                           : AC-3
Format/Info                      : Audio Coding 3
Mode extension                   : CM (complete main)
Codec ID                         : A_AC3
Duration                         : 24mn 13s
Bit rate mode                    : Constant
Bit rate                         : 192 Kbps
Channel(s)                       : 2 channels
Channel positions                : Front: L R
Sampling rate                    : 48.0 KHz
Bit depth                        : 16 bits
Compression mode                 : Lossy
Stream size                      : 33.3 MiB (4%)
Title                            : AC3 2.0 @ 192 kbps [VO-Production]
Language                         : Russian
Audio #2
ID                               : 3
Format                           : AC-3
Format/Info                      : Audio Coding 3
Mode extension                   : CM (complete main)
Codec ID                         : A_AC3
Duration                         : 24mn 13s
Bit rate mode                    : Constant
Bit rate                         : 384 Kbps
Channel(s)                       : 6 channels
Channel positions                : Front: L C R, Side: L R, LFE
Sampling rate                    : 48.0 KHz
Bit depth                        : 16 bits
Compression mode                 : Lossy
Stream size                      : 66.5 MiB (8%)
Title                            : AC3 5.1 384 Kbps
Language                         : English
Text
ID                               : 4
Format                           : UTF-8
Codec ID                         : S_TEXT/UTF8
Codec ID/Info                    : UTF-8 Plain Text
Language                         : Russian
-

Еще скриншоты

Вне форума [Профиль] [ЛС]
Показать сообщения:    
Ответить на тему

Текущее время: Сегодня 22:18

Часовой пояс: GMT + 3



Вы не можете начинать темы
Вы не можете отвечать на сообщения
Вы не можете редактировать свои сообщения
Вы не можете удалять свои сообщения
Вы не можете голосовать в опросах
Вы не можете прикреплять файлы к сообщениям
Вы не можете скачивать файлы