Сегодня идет свободное скачивание без начисления Download

Симпсоны / The Simpsons / Сезон: 24 / Серии: 2 из (?) (Мэтт Гроунинг / Matt Groening) [2012, Комедия, HDTVRip AVC ] VO [КетчупТВ]

Ответить на тему
 
Автор
Сообщение

Omen ®

Стаж: 4 года 10 месяцев

Сообщений: 190643

Торрент-статистика

Пост 22-Ноя-2012 10:09

[Цитировать]

Симпсоны / The Simpsons- - Страна: США
Жанр: Комедия
Продолжительность: ~21мин
Год выпуска: 2012
Перевод: Любительский (одноголосый закадровый)
Русские субтитры: нет
-Режиссёр: Мэтт Гроунинг / Matt Groening
Роли озвучивали: Дэн Кастелланета, Джули Кавнер, Нэнси Картрайт, Ярдли Смит, Гарри Ширер, Хэнк Азария, Памела Хейден, Тресс МакНилл, Карл Видерготт, Мэгги Росвэлл-Список серий:
1 Moonshine River
2 Treehouse of Horror XXIII-Качество: HDTVRip
Формат: MKV
Видео: H 264 / 1315 Кбит/сек / 704 x 400 / 23.976 fps / 16:9
Аудио: MP3 / 192 Kbps / 44.1 KHz / 2 ch [RUS]
Субтитры: Отсутствуют
-Перевод и озвучка - КетчупТВ -Сэмпл-

Media Info

Формат : Matroska
Версия формата : Version 2
Размер файла : 232 Мбайт
Продолжительность : 21 м.
Режим общего битрейта : Переменный
Общий поток : 1537 Кбит/сек
Название фильма : The Simpsons - 24x01 - Moonshine River
Дата кодирования : UTC 2012-10-07 22:30:31
рограмма кодирования : mkvmerge v5.8.0 ('No Sleep / Pillow') built on Sep 2 2012 15:37:04
Библиотека кодирования : libebml v1.2.3 + libmatroska v1.3.0
Видео
Идентификатор : 1
Формат : AVC
Формат/Информация : Advanced Video Codec
Профиль формата : Main@L3.0
Параметр CABAC формата : Да
Параметр ReFrames формата : 2 кадра
Идентификатор кодека : V_MPEG4/ISO/AVC
Продолжительность : 21 м.
Вид битрейта : Переменный
Битрейт : 1315 Кбит/сек
Максимальный битрейт : 2025 Кбит/сек
Ширина : 704 пикселя
Высота : 400 пикселей
Соотношение сторон : 16:9
Режим частоты кадров : Постоянный
Частота кадров : 23,976 кадра/сек
Цветовое пространство : YUV
Субдискретизация насыщенности : 4:2:0
Битовая глубина : 8 бит
Тип развёртки : Прогрессивная
Бит/(Пиксели*Кадры) : 0.195
Размер потока : 198 Мбайт (86%)
Default : Да
Forced : Нет
Аудио
Идентификатор : 2
Формат : MPEG Audio
Версия формата : Version 1
Профиль формата : Layer 3
Режим : Joint stereo
Расширение режима : MS Stereo
Идентификатор кодека : A_MPEG/L3
Идентификатор кодека/Подсказка : MP3
Продолжительность : 21 м.
Вид битрейта : Постоянный
Битрейт : 192 Кбит/сек
Каналы : 2 канала
Частота : 44,1 КГц
Метод сжатия : С потерями
Размер потока : 28,9 Мбайт (12%)
Библиотека кодирования : LAME3.98.2
Язык : Russian
Default : Да
Forced : Нет

Скриншоты

Внимание! Раздача ведётся путём добавления новых серий

Внимание! Раздача ведётся путём добавления новых серий; при каждом добавлении создётся новый торрент. Чтобы начать докачку новой серии, пользователям необходимо сделать следующее:
(1) остановить скачивание,
(2) удалить старый торрент-файл у себя из клиента (старые серии удалять не надо),
(3) скачать новый торрент-файл из раздачи и запустить его у себя в клиенте вместо старого, при этом указать клиенту путь в старую папку куда и должно происходить скачивание новых серий.
Ваш клиент при этом должен произвести хеширование (проверку) старой папки (если не производит сам - помогите ему сделать это), и будет докачивать только те серии которых у вас ещё нет. Старые серии при этом не удаляются, а продолжают раздаваться!
Eсли вы уже посмотрели и удалили старые серии, то предотвратить повторную закачку старых серий можно, сняв галочки в соответсвующих местах при запуске нового торрента. По возможности, желательно не удалять старые серии как можно дольше чтобы релизёр не столько продолжал раздавать старые серии, а смог сконцентрироваться на новых.

-
-
Вне форума [Профиль] [ЛС]
Показать сообщения:    
Ответить на тему

Текущее время: Сегодня 06:00

Часовой пояс: GMT + 3



Вы не можете начинать темы
Вы не можете отвечать на сообщения
Вы не можете редактировать свои сообщения
Вы не можете удалять свои сообщения
Вы не можете голосовать в опросах
Вы не можете прикреплять файлы к сообщениям
Вы не можете скачивать файлы