Сегодня идет свободное скачивание без начисления Download

Гриффины / Family Guy / Сезон: 10 / Серии: 1-23 (23) (Сет Макфарлейн / Seth MacFarlane) [2011, Мультсериал, комедия, пародия, WEB-DLRip-AVC] MVO Filiza Studio

Ответить на тему
 
Автор
Сообщение

Omen ®

Стаж: 4 года 10 месяцев

Сообщений: 190643

Торрент-статистика

Пост 22-Ноя-2012 10:08

[Цитировать]

Гриффины / Family Guy / 10 Сезон / WEB-DLRip-AVC
Страна: США
Жанр: Мультсериал, комедия, пародия
Продолжительность: 00:22:00
Год выпуска: 2011
Перевод: Профессиональный (многоголосый закадровый) - Filiza Studio
Русские субтитры: нет
Режиссёр: Сет Макфарлейн
Описание: "Гриффины" (Family Guy) - анимационное ТВ-Шоу, созданное Сетом МакФерлайном (Seth MacFarlane) для телеканала FOX. Как нетрудно догадаться, главными героями шоу является семейка Гриффинов: тупой, но полный сумашедших идей, составляющих львиную долю шуток сериала, отец семейства Питер; его любящя и терпеливая жена Лойс, всеми силами пытающаяся превратить Гриффинов в нормальную семью; их интеллектуально развитый не по годам, вынашивающий идею мирового господства младший сын Стьюи; дочь-ботаник, обречённая из-за этого на одиночество и непонимание как в школе так и дома, Мэг; и 13-ти летний отсталый в развитии лет на 10, сын Крис. Также полноценным членом семьи является пёс Брайн - склонный к меланхолии эстет, спокойно наблюдающий с бокалом вина в лапе над приключениями Питера и остальных членов семьи (и это при всём притом, что остальные собаки в сериале не являются очеловеченными).
Качество: WEB-DLRip
Формат: MKV
Видео: 720 X 400 / 23.976 fps / ~900 kbp/s / 0.12 bit/px
Аудио: AC3 / 5.1 / 48KHz / ~384 - русская
Аудио: AC3 / 5.1 / 48KHz / ~384 - английская
Субтитры: отсутствуют

Серии

1001 - Lottery Fever
1002 - Seahorse Seashell Party
1003 - Screams of Silence The Story of Brenda
1004 - Stewie Goes for a Drive
1005 - Back to Pilot
1006 - Thanksgiving
1007 - Amish Guy
1008 - Cool Hand Peter
1009 - Grumpy Old Man
1010 - Quagmire and Meg
1011 - The Blind Side
1012 - Livin' on a Prayer
1013 - Tom Tucker: The Man and His Dream
1014 - Be Careful What you Fish
1015 - Burning Down the Bayit
1016 - Killer Queen
1017 - Forget-Me-Not
1018 - You Can't Do That on Television, Peter
1019 - Mr. & Mrs. Stewie
1020 - Leggo My Meg-O
1021 - Tea Peter
1022 - Family Guy Viewer Mail #2
1023 - Internal Affairs

MI

General
Unique ID : 203946030520899092717575210355859438043 (0x996E93A40C13CA13AAC147585BB4B9DB)
Complete name : N:\Сериалы\Family Guy\Family Guy - Season 10 WEB-DLRip-AVC\1001 - Lottery Fever.mkv
Format : Matroska
File size : 253 MiB
Duration : 21mn 36s
Overall bit rate : 1 639 Kbps
Movie name : Релиз - D2T/"Криволапый ювелир"
Encoded date : UTC 2011-10-24 13:52:55
Writing application : mkvmerge v4.0.0 ('The Stars were mine') сборка от Jun 6 2010 16:18:42
Writing library : libebml v1.0.0 + libmatroska v1.0.0
Video
ID : 1
Format : AVC
Format/Info : Advanced Video Codec
Format profile : High@L3.0
Format settings, CABAC : Yes
Format settings, ReFrames : 4 frames
Format settings, GOP : M=1, N=24
Codec ID : V_MPEG4/ISO/AVC
Duration : 21mn 36s
Bit rate : 838 Kbps
Width : 720 pixels
Height : 400 pixels
Display aspect ratio : 16:9
Frame rate : 23.976 fps
Color space : YUV
Chroma subsampling : 4:2:0
Bit depth : 8 bits
Scan type : Progressive
Bits/(Pixel*Frame) : 0.121
Stream size : 130 MiB (51%)
Writing library : x264 core 116 r2074 2641b9e
Encoding settings : cabac=1 / ref=4 / deblock=1:0:0 / analyse=0x3:0x112 / me=tesa / subme=9 / psy=1 / psy_rd=1.00:0.00 / mixed_ref=1 / me_range=16 / chroma_me=1 / trellis=2 / 8x8dct=1 / cqm=0 / deadzone=21,11 / fast_pskip=1 / chroma_qp_offset=-2 / threads=6 / sliced_threads=0 / nr=0 / decimate=1 / interlaced=0 / bluray_compat=0 / constrained_intra=0 / bframes=4 / b_pyramid=2 / b_adapt=2 / b_bias=0 / direct=3 / weightb=0 / open_gop=0 / weightp=2 / keyint=150 / keyint_min=1 / scenecut=33 / intra_refresh=0 / rc=cqp / mbtree=0 / qp=14 / ip_ratio=1.40 / pb_ratio=1.30 / aq=0
Language : English
Audio #1
ID : 2
Format : AC-3
Format/Info : Audio Coding 3
Mode extension : CM (complete main)
Codec ID : A_AC3
Duration : 21mn 36s
Bit rate mode : Constant
Bit rate : 384 Kbps
Channel(s) : 6 channels
Channel positions : Front: L C R, Side: L R, LFE
Sampling rate : 48.0 KHz
Bit depth : 16 bits
Compression mode : Lossy
Stream size : 59.3 MiB (23%)
Title : Filiza Studio
Language : Russian
Audio #2
ID : 3
Format : AC-3
Format/Info : Audio Coding 3
Mode extension : CM (complete main)
Codec ID : A_AC3
Duration : 21mn 36s
Bit rate mode : Constant
Bit rate : 384 Kbps
Channel(s) : 6 channels
Channel positions : Front: L C R, Side: L R, LFE
Sampling rate : 48.0 KHz
Bit depth : 16 bits
Compression mode : Lossy
Stream size : 59.3 MiB (23%)
Language : English

Скриншоты

Вне форума [Профиль] [ЛС]
Показать сообщения:    
Ответить на тему

Текущее время: Сегодня 15:46

Часовой пояс: GMT + 3



Вы не можете начинать темы
Вы не можете отвечать на сообщения
Вы не можете редактировать свои сообщения
Вы не можете удалять свои сообщения
Вы не можете голосовать в опросах
Вы не можете прикреплять файлы к сообщениям
Вы не можете скачивать файлы