Сегодня идет свободное скачивание без начисления Download

Друпи - Полная коллекция / Tex Averys Droopy - The Complete Collection (24 серии) (1943-1958) DVDRip

Ответить на тему
 
Автор
Сообщение

sashau ®

Пол:

Стаж: 5 лет 11 месяцев

Сообщений: 3569

Торрент-статистика

Пост 19-Ноя-2012 16:58

[Цитировать]

Друпи (Полная коллекция) / Tex Averys Droopy The Complete Collection
(1943-1958) DVDRip
- Русское название: Друпи (Полная коллекция - 24 серии)
Оригинальное название: Tex Averys Droopy The Complete Collection
Год выпуска: 1943-1958
Жанр: Рисованная анимация
Выпущено: США, Metro-Goldwyn-Mayer
Режиссер: Текс Эвери
Описание фильма:
Собака - друг человека, а лучший друг для любителей мультфильмов - Друпи, крохотный бассет-хаунд, созданный легендой мультипликации Тексом Эвери. В любой ситуации Друпи остается невозмутимым. Да, он весь покрыт складками, но они не мешают ему. Никогда. Он медленно говорит, но быстро думает. Он неспешно двигается, но появляется в любом необходимом месте быстрее, чем любая собака успеет вылизать свою миску. Он - сосредоточение коронных остроумных шуток Эвери, сильных впечатлений и шумной непредсказуемости.
Продолжительность: 24 х ~ 00:07:00
Перевод: Дублированный

Видеокодек: DivX 5
Битрейт видео: ~1960 kb/s
Размер кадра: 720 х 544, 720 х 304
Качество видео: DVDRip
Аудиокодек: MP3 1.0
Битрейт аудио: 128 kb/s

Содержание

01. Друпи охотник за приступником
02. Выстрел Дена Мак Гу
03. Друпи на диком западе
04. Друпи и конная полиция
05. Сеньор Друпи
06. Сплетни о богатеях
07. Друпи охотник
08. Друпи спортсмен
09. Смельчак Друпи
10. Смелые поступки Друпи
11. Друпи и его двойник
12. Друпи кабальеро
13. Три сабачонки
14. Друпи погонщик
15. Друпи поселенец
16. Друпи Диксиленд
17. Друпи поможник шерифа
18. Друпи миллионер
19. Справедливый дележ
20. Школьные будни
21. Друпи рыцарь
22. Друпи пастух
23. Дураки на виражах
24. Друпи эльф

Дополнительная информация

Перевод: Дублированный (серии: 1,3,4,7,8,11-13,15-17,19-24)
Перевод: Без перевода (серии: 2,5,6,9,10,14,18)
Серии: с 1-18 размер кадра 720х544
Серии: с 19-24 размер кадра 720х304

MediaInfo

Общее
Полное имя : \Друпи.Полная коллекция.1943-1958.DVDRip\07. Друпи охотник.avi
Формат : AVI
Формат/Информация : Audio Video Interleave
Размер файла : 118 Мбайт
Продолжительность : 7 м. 57 с.
Общий поток : 2078 Кбит/сек
Программа кодирования : VirtualDubMod 1.5.10.3 | www.virtualdub-fr.org || (build 2550/release)
Библиотека кодирования : VirtualDubMod build 2550/release
Видео
Идентификатор : 0
Формат : MPEG-4 Visual
Профиль формата : Advanced Simple@L5
Параметр BVOP формата : 1
Параметр QPel формата : Нет
Параметр GMC формата : Без точки перехода
Параметр матрицы формата : Default (MPEG)
Идентификатор кодека : DX50
Идентификатор кодека/Подсказка : DivX 5
Продолжительность : 7 м. 57 с.
Битрейт : 1940 Кбит/сек
Ширина : 720 пикселей
Высота : 544 пикселя
Соотношение сторон : 4:3
Частота кадров : 25,000 кадров/сек
Цветовое пространство : YUV
Субдискретизация насыщенности : 4:2:0
Битовая глубина : 8 бит
Тип развёртки : Прогрессивная
Метод сжатия : С потерями
Бит/(Пиксели*Кадры) : 0.198
Размер потока : 110 Мбайт (93%)
Библиотека кодирования : XviD 64
Аудио
Идентификатор : 1
Формат : MPEG Audio
Версия формата : Version 1
Профиль формата : Layer 3
Идентификатор кодека : 55
Идентификатор кодека/Подсказка : MP3
Продолжительность : 7 м. 57 с.
Вид битрейта : Постоянный
Битрейт : 128 Кбит/сек
Каналы : 1 канал
Частота : 48,0 КГц
Метод сжатия : С потерями
Размер потока : 7,29 Мбайт (6%)
Выравнивание : Соединение по промежуткам
Продолжительность промежутка : 40 мс. (1,00 видеокадр)
Время предзагрузки промежутка : 504 мс.
Библиотека кодирования : LAME3.99
Настройки программы : -m m -V 4 -q 2 -lowpass 20.5 -b 128
Скриншоты:        
       
Приятного просмотра!
Вне форума [Профиль] [ЛС]
Показать сообщения:    
Ответить на тему

Текущее время: Сегодня 05:39

Часовой пояс: GMT + 3



Вы не можете начинать темы
Вы не можете отвечать на сообщения
Вы не можете редактировать свои сообщения
Вы не можете удалять свои сообщения
Вы не можете голосовать в опросах
Вы не можете прикреплять файлы к сообщениям
Вы не можете скачивать файлы