Сегодня идет свободное скачивание без начисления Download

Звездные Войны: Войны Клонов / Star Wars: The Clone Wars (Сезон 5, серии 6 из 22) (2012-2013) [H.264/720p-LQ] WEB-DLRip (Iron Sound) (обновляемая)

Ответить на тему
 
Автор
Сообщение

Omen ®

Стаж: 5 лет 2 месяца

Сообщений: 190516

Торрент-статистика

Пост 15-Ноя-2012 20:21

[Цитировать]

Звездные Войны: Войны Клонов
Star Wars: The Clone Wars
- Русское название: Звездные Войны: Войны Клонов: Сезон 5
Оригинальное название: Star Wars: The Clone Wars: Season 5
Год выпуска: 2012-2013
Жанр: Фантастика, мультфильм, приключения
Выпущено: США, Lucasfilm Ltd, Cartoon Network
Описание фильма:
Дарт Мол и Саваж Опресс сеют смерть и разрушение, занимаясь разбоем на Внешнем Кольце. Избавив брата от отчаяния и забвения, Саваж со своим братом убивают и мародёрствуют всюду. Снедаемый бешенством и местью, они прибывают в поиске смысла в их новом альянсе; тогда как слухи о их жестоких набегах распространяется по галактике. Дарт Мол явно не горит желанием примкнуть ни к Сепаратистам в борьбе против Республики ни к джедаям, но намерен выступить в качестве третьей силы в галактическом конфликте.
Режиссер: Дэйв Филони
Актеры: Том Кэйн, Ди Брэдли Бейкер, Мэтт Лантер, Мэттью Вуд, Эшли Дрейн, Джеймс Арнольд Тейлор, Кори Бертон, Йен Эберкромби, Терренс «Т.К.» Карсон, Катрин Табер
Продолжительность: 6 x ~00:22:00
Перевод: Любительский (многоголосый закадровый)
Автор перевода: Студия «Iron Sound»

Видеокодек: MPEG-4 AVC/H.264
Битрейт видео: ~1466 kb/s
Размер кадра: 1280 х 720
Качество видео: WEB-DLRip
Аудио 1: Русский, Dolby AC3, 6 ch, 384 kb/s
Аудио 2: Английский, Dolby AC3, 6 ch, 384 kb/s
-

Список серий:

  • Возрождение (Revival)
  • Война на два фронта (A War on Two Fronts)
  • Кандидаты (Front Runners)
  • Мягкая война (The Soft War)
  • Переломный момент (Tipping Points)
  • Сбор (Collection)
-

MediaInfo

Код:
Общее
Уникальный идентификатор                 : 239475748148014144166322297267312233190 (0xB42959F7667CEC2BBF7F2B99E5118AE6)
Полное имя                               : \Zvezdnie.voini.Voiny.klonov.(5.sezon).2012-2013.IronSound\The.Clone.Wars.S05E01.Revival.[MVO.IRON-SOUND].mkv
Формат                                   : Matroska
Версия формата                           : Version 2
Размер файла                             : 805 Мбайт
Продолжительность                        : 22 м.
Общий поток                              : 5052 Кбит/сек
Название фильма                          : S05E01 - Revival
Дата кодирования                         : UTC 2012-10-03 17:53:48
Программа кодирования                    : mkvmerge v5.8.0 ('No Sleep / Pillow') built on Sep  2 2012 15:37:04
Библиотека кодирования                   : libebml v1.2.3 + libmatroska v1.3.0
Видео
Идентификатор                            : 1
Формат                                   : AVC
Формат/Информация                        : Advanced Video Codec
Профиль формата                          : [url=mailto:High@L3.1]High@L3.1[/url]
Параметр CABAC формата                   : Нет
Параметр ReFrames формата                : 2 кадра
Идентификатор кодека                     : V_MPEG4/ISO/AVC
Продолжительность                        : 22 м.
Битрейт                                  : 4183 Кбит/сек
Ширина                                   : 1280 пикселей
Высота                                   : 720 пикселей
Соотношение сторон                       : 16:9
Режим частоты кадров                     : Постоянный
Частота кадров                           : 23,976 кадра/сек
Цветовое пространство                    : YUV
Субдискретизация насыщенности            : 4:2:0
Битовая глубина                          : 8 бит
Тип развёртки                            : Прогрессивная
Бит/(Пиксели*Кадры)                      : 0.189
Размер потока                            : 667 Мбайт (83%)
Заголовок                                : AVC
Язык                                     : English
Default                                  : Да
Forced                                   : Нет
Основные цвета                           : BT.709
Характеристики трансфера                 : BT.709
Коэффициенты матрицы                     : BT.709
Аудио #1
Идентификатор                            : 2
Формат                                   : AC-3
Формат/Информация                        : Audio Coding 3
Расширение режима                        : CM (complete main)
Параметр Endianness формата              : Big
Идентификатор кодека                     : A_AC3
Продолжительность                        : 22 м.
Вид битрейта                             : Постоянный
Битрейт                                  : 384 Кбит/сек
Каналы                                   : 6 каналов
Расположение каналов                     : Front: L C R, Side: L R, LFE
Частота                                  : 48,0 КГц
Битовая глубина                          : 16 бит
Метод сжатия                             : С потерями
Размер потока                            : 61,2 Мбайт (8%)
Заголовок                                : Студия «Iron Sound»
Язык                                     : Russian
Default                                  : Да
Forced                                   : Да
Аудио #2
Идентификатор                            : 3
Формат                                   : AC-3
Формат/Информация                        : Audio Coding 3
Расширение режима                        : CM (complete main)
Параметр Endianness формата              : Big
Идентификатор кодека                     : A_AC3
Продолжительность                        : 22 м.
Вид битрейта                             : Постоянный
Битрейт                                  : 384 Кбит/сек
Каналы                                   : 6 каналов
Расположение каналов                     : Front: L C R, Side: L R, LFE
Частота                                  : 48,0 КГц
Битовая глубина                          : 16 бит
Метод сжатия                             : С потерями
Размер потока                            : 61,2 Мбайт (8%)
Заголовок                                : [Original]
Язык                                     : English
Default                                  : Нет
Forced                                   : Нет
-Скриншоты:
         
Вне форума [Профиль] [ЛС]
Похожие темы
Форум Тема Автор Торрент Отв. Посл. сообщение
./templates/default/images/folder_dl.gif Книги для IPhone, IPod, Apple Форстер Э, Кинг С, Шекли Р, Вагнер К, Матесон Р, Пол Ф, Рыбаков В, Сильверберг Р, Рейнольдс А, Лукьяненко С, Эллисон Х, Браун Ф, Лавкрафт Г, и др - Созвездие Льва 2: Всадники Апокалипсиса [Булдаков Олег, 2016, Фантастика, 192Kbps], M4B VHS
1 | 0

0 | 2444

1

2016-07-26 17:32
VHS Последнее
./templates/default/images/folder_dl.gif Новинки (CamRip|TS) Звёздные войны: Последние джедаи / Star Wars: The Last Jedi (Райан Джонсон) [2017, фантастика, фэнтези, боевик, приключения, TS (Proper)] DUB Theseus
1 | 0

0 | 1761

3

2017-12-18 18:38
Theseus Последнее
./templates/default/images/folder_dl.gif Новинки (CamRip|TS) Звёздные войны: Последние джедаи / Star Wars: The Last Jedi (Райан Джонсон) [2017, фантастика, фэнтези, боевик, приключения, Telecine] Theseus
1 | 0

0 | 761

6

2018-01-14 22:18
Theseus Последнее
./templates/default/images/folder_dl.gif Фантастика, фэнтези, ужасы, мистика Питер Гамильтон | Звездная дорога (2017) [FB2] }{@R0N
1 | 0

0 | 81

3

2018-01-17 14:30
}{@R0N Последнее
Показать сообщения:    
Ответить на тему

Текущее время: Сегодня 02:05

Часовой пояс: GMT + 3



Вы не можете начинать темы
Вы не можете отвечать на сообщения
Вы не можете редактировать свои сообщения
Вы не можете удалять свои сообщения
Вы не можете голосовать в опросах
Вы не можете прикреплять файлы к сообщениям
Вы не можете скачивать файлы