Сегодня идет свободное скачивание без начисления Download

Бесценное время / Oyle Bir Gecer Zaman Ki (сезонов: 3 из (03), серии: 01-148 из (???)) (2010-2012) [WEB-Rip - HDTVRip]

Ответить на тему
 
Автор
Сообщение

Koralina ®

Стаж: 6 лет 9 месяцев

Сообщений: 1043

Откуда: Lithuania

Торрент-статистика

Пост 09-Ноя-2012 00:43

[Цитировать]

Бесценное время / Oyle Bir Gecer Zaman Ki (1-2 сезон, 01-148 из (140)) (2010-2011) [WEBRip-HDTVRip] - Русское название: Бесценное время
Оригинальное название: Oyle Bir Gecer Zaman Ki
Год выпуска: 2010-2012
Страна: Турция
Жанр: Драма
Продолжительность: 01:20:00-Перевод 1-2 сезон: Двуголосый закадровый, профессиональный русский
Озвучка / Автор перевода: "КТК"
Перевод 3 сезон: Одноголосный закадровый, любительский русский
Перевод: "Елена -ELVAN- Белова"
Озвучка: turok1990
Субтитры: Есть (с 1 по 21 серии)
Вид субтитров: Казахские вшитые (с 1 по 21 серии)- -Режиссер: Zeynep Gunay-Лидер рейтингов, собравший миллионы зрителей и десятки миллионов восторженных отзывов. «Бесценное время…» - сериал-откровение, заставляющий по-новому взглянуть на семейной ценности. «Бесценное время…» - лучший сериал уходящего года
Интригующий сюжет и блистательная игра лучших актеров. Рейтинги, затмившие успех «Фатмагюль»
-Актеры: Еркан Петекая Айша Бингюль Вильма Эллис Эмир Берке Зинчиди, Араш Булут Ийнемли Мете Хорошоглу Юлдыз Чагри Атиксой Фарах Зейнеп Абдулла -Описание фильма:
Выбор между семьей и любовью можно сделать за минуту. Преодолеть последствия можно не успеть за всю жизнь.
-История начинается в 1967 году и рассказывает о семье Акарсу. Главным героем является капитан Али, у которого есть жена и дети, но , не смотря на это он заводит себе любовницу из Германии. Его жена Джамиле, узнав об этом, ранит ее, вследствие чего попадает в тюрьму. Подписав с Каролин договор о том, что она разведется с Али, Джемиле выходит из тюрьмы. После развода Али оставляет жену и детей практически на улице...Также у Али очень плохие отношения с сыном Мете. Дело доходит до того, что Мете решает поджечь дом, из-за чего отец заявляет на сына в полицию. Джемиле просит Али не делать этого. Али соглашается, однако у него условие: он забирает заявление на сына в обмен на то, что Джемиле отдаст самого младшего сына Османа Али...-Любовь никогда не приходит слишком рано. Но очень часто она приходит слишком поздно, когда ничего нельзя изменить. Сериал «Бесценное время…» - откровения людей, которые попытались пойти против судьбы. Сериал, всколыхнувший Турцию.-Действие второго сезона начинается 2 года спустя, после череды тяжелых событий, случившихся с героями сериала, которые полностью изменили их жизнь. Что еще ждет членов семьи Акарсу, как сложатся их судьбы дальше? Бесценное время продолжается...---С 01 по 21 серии
Качество: WEBRip
Формат: AVI
Видео кодек: DivX
Аудио кодек: MP3
Видео: DivX 4, 640x480, 25.000 fps, 1800 Kbps, 0.23 bit/pixel
Аудио: MP3, 48.0 KHz, 2 channels, 128 Kbps

Скриншоты:        

MI

Общее
Полное имя : E:\Сериалы\Турецкие\Бесценное время (�yle Bir Ge�er Zaman Ki)\Сезон 01\Oyle Bir Gecer Zaman Ki 01.avi
Формат : AVI
Формат/Информация : Audio Video Interleave
Размер файла : 1,04 Гбайт
Продолжительность : 1 ч. 19 м.
Общий поток : 1875 Кбит/сек
Программа кодирования : VirtualDubModRus 1.5.10.2 (build 2542/release)
Библиотека кодирования : VirtualDub build 31953/release
Видео
Идентификатор : 0
Формат : MPEG-4 Visual
Профиль формата : Simple@L1
Параметр BVOP формата : Нет
Параметр QPel формата : Нет
Параметр GMC формата : Без точки перехода
Параметр матрицы формата : Default (H.263)
Идентификатор кодека : DIVX
Идентификатор кодека/Информация : Project Mayo
Идентификатор кодека/Подсказка : DivX 4
Продолжительность : 1 ч. 19 м.
Битрейт : 1737 Кбит/сек
Ширина : 640 пикселей
Высота : 480 пикселей
Соотношение сторон : 4:3
Частота кадров : 25,000 кадров/сек
Цветовое пространство : YUV
Субдискретизация насыщенности : 4:2:0
Битовая глубина : 8 бит
Тип развёртки : Прогрессивная
Метод сжатия : С потерями
Бит/(Пиксели*Кадры) : 0.226
Размер потока : 982 Мбайт (93%)
Библиотека кодирования : Lavc52.22.3
Аудио
Идентификатор : 1
Формат : MPEG Audio
Версия формата : Version 1
Профиль формата : Layer 3
Режим : Joint stereo
Расширение режима : MS Stereo
Идентификатор кодека : 55
Идентификатор кодека/Подсказка : MP3
Продолжительность : 1 ч. 19 м.
Вид битрейта : Постоянный
Битрейт : 128 Кбит/сек
Каналы : 2 канала
Частота : 48,0 КГц
Метод сжатия : С потерями
Размер потока : 72,4 Мбайт (7%)
Выравнивание : Разделение по промежуткам
Продолжительность промежутка : 40 мс. (1,00 видеокадр)
Время предзагрузки промежутка : 500 мс.
Библиотека кодирования : LAME3.98.2
-С 22 по 58 серии
Качество: HDTVRip
Формат: AVI
Видео кодек: DivX
Аудио кодек: MP3
Видео: DivX 4, 720x400, 25.000 fps, 1800 Kbps, 0.23 bit/pixel
Аудио: MP3, 48.0 KHz, 2 channels, 128 Kbps

Скриншоты        

MI

Общее
Полное имя : E:\Сериалы\Турецкие\Бесценное время (�yle Bir Ge�er Zaman Ki)\Сезон 01\Oyle Bir Gecer Zaman Ki 22.avi
Формат : AVI
Формат/Информация : Audio Video Interleave
Размер файла : 1,21 Гбайт
Продолжительность : 1 ч. 35 м.
Общий поток : 1821 Кбит/сек
Программа кодирования : VirtualDubModRus 1.5.10.2 (build 2542/release)
Библиотека кодирования : VirtualDub build 31953/release
Видео
Идентификатор : 0
Формат : MPEG-4 Visual
Профиль формата : Simple@L1
Параметр BVOP формата : Нет
Параметр QPel формата : Нет
Параметр GMC формата : Без точки перехода
Параметр матрицы формата : Default (H.263)
Идентификатор кодека : DIVX
Идентификатор кодека/Информация : Project Mayo
Идентификатор кодека/Подсказка : DivX 4
Продолжительность : 1 ч. 35 м.
Битрейт : 1683 Кбит/сек
Ширина : 720 пикселей
Высота : 400 пикселей
Соотношение сторон : 16:9
Частота кадров : 25,000 кадров/сек
Цветовое пространство : YUV
Субдискретизация насыщенности : 4:2:0
Битовая глубина : 8 бит
Тип развёртки : Прогрессивная
Метод сжатия : С потерями
Бит/(Пиксели*Кадры) : 0.234
Размер потока : 1,12 Гбайт (92%)
Библиотека кодирования : Lavc52.22.3
Аудио
Идентификатор : 1
Формат : MPEG Audio
Версия формата : Version 1
Профиль формата : Layer 3
Режим : Joint stereo
Расширение режима : MS Stereo
Идентификатор кодека : 55
Идентификатор кодека/Подсказка : MP3
Продолжительность : 1 ч. 35 м.
Вид битрейта : Постоянный
Битрейт : 128 Кбит/сек
Каналы : 2 канала
Частота : 48,0 КГц
Метод сжатия : С потерями
Задержка видео : 16 мс.
Размер потока : 87,3 Мбайт (7%)
Выравнивание : Разделение по промежуткам
Продолжительность промежутка : 40 мс. (1,00 видеокадр)
Время предзагрузки промежутка : 500 мс.
-С 59 по 140
Качество: HDTVRip
Формат: AVI
Видео кодек: XviD
Аудио кодек: MP3
Видео: XviD, 720x400, 25 000 fps, 1 200 Kbps, 16:9
Аудио: MP3, 48.0 KHz, 2 ch, 128 Kbps

Скриншоты        

MI

Общее
Полное имя : E:\Сериалы\Турецкие\Бесценное время (�yle Bir Ge�er Zaman Ki)\Сезон 02\Oyle Bir Gecer Zaman Ki 59-60 HDTVRip by Hadjal.avi
Формат : AVI
Формат/Информация : Audio Video Interleave
Профиль формата : OpenDML
Размер файла : 1,02 Гбайт
Продолжительность : 1 ч. 48 м.
Общий поток : 1343 Кбит/сек
Программа кодирования : MEncoder SVN-r30881(20100311-gcc4.3.3)
Библиотека кодирования : MPlayer
Видео
Идентификатор : 0
Формат : MPEG-4 Visual
Профиль формата : Advanced Simple@L5
Параметр BVOP формата : 2
Параметр QPel формата : Нет
Параметр GMC формата : Без точки перехода
Параметр матрицы формата : Default (H.263)
Идентификатор кодека : XVID
Идентификатор кодека/Подсказка : XviD
Продолжительность : 1 ч. 48 м.
Битрейт : 1197 Кбит/сек
Ширина : 720 пикселей
Высота : 400 пикселей
Соотношение сторон : 16:9
Частота кадров : 25,000 кадров/сек
Цветовое пространство : YUV
Субдискретизация насыщенности : 4:2:0
Битовая глубина : 8 бит
Тип развёртки : Прогрессивная
Метод сжатия : С потерями
Бит/(Пиксели*Кадры) : 0.166
Размер потока : 927 Мбайт (89%)
Библиотека кодирования : XviD 1.2.1 (UTC 2008-12-04)
Аудио
Идентификатор : 1
Формат : MPEG Audio
Версия формата : Version 1
Профиль формата : Layer 3
Режим : Joint stereo
Расширение режима : MS Stereo
Идентификатор кодека : 55
Идентификатор кодека/Подсказка : MP3
Продолжительность : 1 ч. 48 м.
Вид битрейта : Постоянный
Битрейт : 128 Кбит/сек
Каналы : 2 канала
Частота : 48,0 КГц
Метод сжатия : С потерями
Задержка видео : 40 мс.
Размер потока : 99,1 Мбайт (10%)
Выравнивание : Соединение по промежуткам
Продолжительность промежутка : 24 мс. (0,60 видеокадр)
Время предзагрузки промежутка : 504 мс.
Библиотека кодирования : LAME3.98
-С 141 и далее серии
Качество: WEB-Rip
Формат: AVI
Видео кодек: DivX 5
Аудио кодек: MP3
Видео: DivX, 720x408, 25 000 fps, 1 200 Kbps, 16:9
Аудио: MP3, 44,1 KHz, 2 ch, 256 Kbps

Скриншоты        

MI

Общее
Полное имя : D:\Сериалы\Турецкие\Бесценное время (Oyle Bir Gecer Zaman Ki)\Сезон 03\80_Bescennoe_Vremya_turok1990.avi
Формат : AVI
Формат/Информация : Audio Video Interleave
Размер файла : 1,17 Гбайт
Продолжительность : 1 ч. 54 м.
Общий поток : 1465 Кбит/сек
Библиотека кодирования : VirtualDub build 32842/release
Видео
Идентификатор : 0
Формат : MPEG-4 Visual
Параметр BVOP формата : 1
Параметр QPel формата : Нет
Параметр GMC формата : Без точки перехода
Параметр матрицы формата : Default (H.263)
Режим смешивания : Сжатый битовый поток
Идентификатор кодека : DX50
Идентификатор кодека/Подсказка : DivX 5
Продолжительность : 1 ч. 54 м.
Битрейт : 1200 Кбит/сек
Ширина : 720 пикселей
Высота : 408 пикселей
Соотношение сторон : 16:9
Частота кадров : 25,000 кадров/сек
Цветовое пространство : YUV
Субдискретизация насыщенности : 4:2:0
Битовая глубина : 8 бит
Тип развёртки : Прогрессивная
Метод сжатия : С потерями
Бит/(Пиксели*Кадры) : 0.163
Размер потока : 982 Мбайт (82%)
Библиотека кодирования : DivX 6.8.5 (UTC 2009-08-20)
Аудио
Идентификатор : 1
Формат : MPEG Audio
Версия формата : Version 1
Профиль формата : Layer 3
Идентификатор кодека : 55
Идентификатор кодека/Подсказка : MP3
Продолжительность : 1 ч. 54 м.
Вид битрейта : Постоянный
Битрейт : 256 Кбит/сек
Каналы : 2 канала
Частота : 44,1 КГц
Метод сжатия : С потерями
Размер потока : 210 Мбайт (17%)
Выравнивание : Разделение по промежуткам
Продолжительность промежутка : 40 мс. (1,00 видеокадр)
Время предзагрузки промежутка : 500 мс.

_________________
Вне форума [Профиль] [ЛС]
Показать сообщения:    
Ответить на тему

Текущее время: Сегодня 20:56

Часовой пояс: GMT + 3



Вы не можете начинать темы
Вы не можете отвечать на сообщения
Вы не можете редактировать свои сообщения
Вы не можете удалять свои сообщения
Вы не можете голосовать в опросах
Вы не можете прикреплять файлы к сообщениям
Вы не можете скачивать файлы