Сегодня идет свободное скачивание без начисления Download

Иван Васильевич меняет профессию (1973) BDRip 1080p

Ответить на тему
 
Автор
Сообщение

Delia ®

Пол:

Стаж: 8 лет 5 месяцев

Сообщений: 1822

Торрент-статистика

Пост 21-Мар-2011 14:08

[Цитировать]

Иван Васильевич меняет профессию Год выхода: 1973
Жанр: фантастика, комедия, приключения, семейный
Страна: CCCP
Продолжительность: 01:31:38
Перевод: Не требуется
Режиссер: Леонид Гайдай
В ролях: Александр Демьяненко, Юрий Яковлев, Леонид Куравлёв, Наталья Крачковская, Савелий Крамаров, Наталья Селезнёва, Владимир Этуш, Михаил Пуговкин, Сергей Филиппов, Наталья Кустинская
Полная реставрация изображения и звука. Исходные киноматериалы подготовлены Госфильмофондом России. Покадровая цифровая реставрация изображения, ремастеринг звука и авторинг проведены объединением «Крупный план».
О фильме:
Инженер-изобретатель Тимофеев сконструировал машину времени, которая соединила его квартиру с далеким шестнадцатым веком - точнее, с палатами государя Ивана Грозного. Туда-то и попадают тезка царя пенсионер-общественник Иван Васильевич Бунша и квартирный вор Жорж Милославский.
На их место в двадцатом веке «переселяется» великий государь. Поломка машины приводит ко множеству неожиданных и забавных событий..

Кодек: AVC
Качество: BDRip 1080p
Видео: 1480x1080, 23.976 fps , ~4800 kbps
Аудио :Русский Dolby Digital 5.1 (448 kbps)
Аудио :Русский DTS 5.1 (48 kHz / 1510 kbps / 24-bit)

Скриншоты

        

MediaInfo

D:Ivan Vasiliyevich menyaet professiyu.BDRip.AVC.720p.Alkad.mkv
General
Complete name : D:Ivan Vasiliyevich menyaet professiyu.BDRip.AVC.720p.Alkad.mkv
Format : Matroska
File size : 4.37 GiB
Duration : 1h 31mn
Overall bit rate : 6 831 Kbps
Encoded date : UTC 2011-03-13 15:20:14
Writing application : mkvmerge v3.3.0 ('Language') built on Mar 24 2010 14:59:24
Writing library : libebml v0.8.0 + libmatroska v0.9.0
Video #1
ID : 1
Format : AVC
Format/Info : Advanced Video Codec
Format profile : High@L3.1
Format settings, CABAC : Yes
Format settings, ReFrames : 4 frames
Muxing mode : Container profile=Unknown@3.1
Codec ID : V_MPEG4/ISO/AVC
Duration : 1h 31mn
Bit rate : 6 247 Kbps
Nominal bit rate : 6 382 Kbps
Width : 992 pixels
Height : 720 pixels
Display aspect ratio : 1.378
Frame rate : 23.976 fps
Resolution : 24 bits
Colorimetry : 4:2:0
Scan type : Progressive
Bits/(Pixel*Frame) : 0.365
Stream size : 4.00 GiB (91%)
Title : Ivan Vasiliyevich menyaet professiyu.BDRip.AVC.720p.Alkad
Writing library : x264 core 112 r1867 22bfd31
Encoding settings : cabac=1 / ref=3 / deblock=1:0:0 / analyse=0x3:0x111 / me=hex / subme=7 / psy=1 / psy_rd=1.00:0.00 / mixed_ref=1 / me_range=16 / chroma_me=1 / trellis=1 / 8x8dct=1 / cqm=0 / deadzone=21,11 / fast_pskip=1 / chroma_qp_offset=-2 / threads=4 / sliced_threads=0 / nr=0 / decimate=1 / interlaced=0 / constrained_intra=0 / bframes=3 / b_pyramid=2 / b_adapt=1 / b_bias=0 / direct=1 / weightb=1 / open_gop=0 / weightp=2 / keyint=250 / keyint_min=23 / scenecut=40 / intra_refresh=0 / rc_lookahead=40 / rc=2pass / mbtree=1 / bitrate=6382 / ratetol=1.0 / qcomp=0.60 / qpmin=0 / qpmax=51 / qpstep=4 / cplxblur=20.0 / qblur=0.5 / ip_ratio=1.40 / aq=1:1.00
Language : Russian
Audio #2
ID : 2
Format : AC-3
Format/Info : Audio Coding 3
Codec ID : A_AC3
Duration : 1h 31mn
Bit rate mode : Constant
Bit rate : 448 Kbps
Channel(s) : 6 channels
Channel positions : Front: L C R, Surround: L R, LFE
Sampling rate : 48.0 KHz
Stream size : 294 MiB (7%)
Language : Russian

BDInfo

DISC INFO:
Disc Title: IOAN_VASILIEVICH
Disc Size: 22 686 599 422 bytes
Protection: AACS
BD-Java: No
BDInfo: 0.5.6
PLAYLIST REPORT:
Name: 00002.MPLS
Length: 1:31:38 (h:m:s)
Size: 22 312 187 904 bytes
Total Bitrate: 32,46 Mbps
VIDEO:
Codec Bitrate Deion
----- ------- -----------
MPEG-4 AVC Video 26053 kbps 1080p / 23,976 fps / 16:9 / High Profile 4.1
AUDIO:
Codec Language Bitrate Deion
----- -------- ------- -----------
DTS-HD Master Audio Russian 4067 kbps 5.1 / 48 kHz / 4067 kbps / 24-bit (DTS Core: 5.1 / 48 kHz / 1509 kbps / 24-bit)
Dolby Digital Audio Russian 448 kbps 5.1 / 48 kHz / 448 kbps / DN -4dB
Dolby Digital Audio Russian 224 kbps 1.0 / 48 kHz / 224 kbps / DN -4dB

_________________
Человек – это канат, натянутый между животным и сверхчеловеком, – канат над пропастью.
В человеке ценно то, что он мост, а не цель. Фридрих Ницше


Последний раз редактировалось: Delia (2011-08-26 00:06), всего редактировалось 2 раз(а)
Вне форума [Профиль] [ЛС]

itkus

Пол:

Стаж: 6 лет 2 месяца

Сообщений: 25

Торрент-статистика

Пост 30-Дек-2013 19:04 (спустя 2 года 9 месяцев)

[Цитировать]

Спасибо! Но вот скорости бы поддать.
Вне форума [Профиль] [ЛС]
Показать сообщения:    
Ответить на тему

Текущее время: Сегодня 07:16

Часовой пояс: GMT + 3



Вы не можете начинать темы
Вы не можете отвечать на сообщения
Вы не можете редактировать свои сообщения
Вы не можете удалять свои сообщения
Вы не можете голосовать в опросах
Вы не можете прикреплять файлы к сообщениям
Вы не можете скачивать файлы