Сегодня идет свободное скачивание без начисления Download

Ленин в 1918 году (Михаил Ромм)(1939, СССР, Драма, исторический) DVD5

Ответить на тему
 
Автор
Сообщение

Koralina ®

Стаж: 6 лет 9 месяцев

Сообщений: 1078

Откуда: Lithuania

Торрент-статистика

Пост 07-Ноя-2012 15:59

[Цитировать]

Ленин в 1918 году (1939) DVD5-
Русское название: Ленин в 1918 году
Год выпуска: 1939
Жанр: Драма, исторический
Описание фильма:
Фильм рассказывает о Владимире Ильиче Ленине — государственном деятеле, изменившем современную историю человечества. 1918 год, Советская Россия.
Режиссер: Михаил Ромм
Актеры: Б.В. Щукин, М.Г. Геловани, Н.И. Боголюбов, Н.К. Черкасов, В.П. Марков, Л.С. Любашевский, З.В. Добина, Н.П. Охлопков, К.В. Коробова, В.В. Ванин, Е.Н. Музиль, И.М. Толчанов, А.Е. Хохлов, Д.Н. Орлов, С.П. Козьминский, Н.С. Плотников, Н.К. Свободин, В.А. Третьяков, Н.Г. Эфрон, А.П. Шатов, В.Р. Соловьёв.
Продолжительность: 02:05:11

Видеокодек: MPEG-2
Битрейт видео: ~4180 Кбит/сек
Размер кадра: 720x576
Качество видео: DVD5
Аудиокодек: AC3 2.0
Битрейт аудио: 224 Кбит/сек

MediaInfo:

Общее
Полное имя : G:\new 092012\!102\Ленин в 1918 году DVD\Ленин в 1918 году (полная версия)\VIDEO_TS\VTS_01_1.VOB
Формат : MPEG-PS
Размер файла : 1023 Мбайт
Продолжительность : 32 м.
Режим общего битрейта : Переменный
Общий поток : 4461 Кбит/сек
Видео
Идентификатор : 224 (0xE0)
Формат : MPEG Video
Версия формата : Version 2
Профиль формата : Main@Main
Параметр BVOP формата : Да
Параметр матрицы формата : По умолчанию
Параметр GOP формата : Variable
Продолжительность : 32 м.
Вид битрейта : Переменный
Битрейт : 4180 Кбит/сек
Максимальный битрейт : 8000 Кбит/сек
Ширина : 720 пикселей
Высота : 576 пикселей
Соотношение сторон : 4:3
Частота кадров : 25,000 кадров/сек
Стандарт вещания : PAL
Цветовое пространство : YUV
Субдискретизация насыщенности : 4:2:0
Битовая глубина : 8 бит
Тип развёртки : Чересстрочная
Порядок развёртки : Нижнее поле первое
Метод сжатия : С потерями
Бит/(Пиксели*Кадры) : 0.403
Размер потока : 959 Мбайт (94%)
Аудио
Идентификатор : 189 (0xBD)-128 (0x80)
Формат : AC-3
Формат/Информация : Audio Coding 3
Расширение режима : CM (complete main)
Параметр Endianness формата : Big
Режим смешивания : DVD-Video
Продолжительность : 32 м.
Вид битрейта : Постоянный
Битрейт : 192 Кбит/сек
Каналы : 2 канала
Расположение каналов : Front: L R
Частота : 48,0 КГц
Битовая глубина : 16 бит
Метод сжатия : С потерями
Задержка видео : -80 мс.
Размер потока : 44,0 Мбайт (4%)
Меню

DVDInfo:

Title: Ленин в 1918 году (полная версия)
Size: 3.91 Gb ( 4 100 520,00 KBytes ) - DVD-5
Enabled regions: 1, 2, 3, 4, 5, 6, 7, 8
VTS_01 :
Play Length: 00:00:10+00:00:20+02:05:11
Video: PAL 4:3 (720x576) VBR
Audio:
Russian (Dolby AC3, 2 ch)
* Menus Information *
VIDEO_TS Menu
Video:
PAL 4:3 (720x576) VBR
English Language Unit :
Title Menu
VTS_01 Menu
Video:
PAL 4:3 (720x576) VBR
English Language Unit :
Root Menu

DVDMenu:

   
Скриншоты:                    

Рецензия, отзыв о фильме

После выхода картины «Человек с ружьём» наметилась определённая тенденция в изображении Ленина в советском кинематографе. В картине «Ленин в 1918 году» вождь мирового пролетариата — главный герой, но при этом исподволь на первый план выходит Сталин. Ленин занят общим руководством и своего рода кабинетной работой, а Сталин непосредственно проводит в жизнь решения партии на фронтах и на периферии.Задачей создателей было также показать то, что Ленин не один руководил страной, а был во главе целой группы единомышленников, способных подхватить знамя в то время, когда мог начаться кризис власти после покушения на лидера страны. Кульминацией картины становится наступление красных под Царицыном, по сюжету возглавляемое лично Сталиным. Когда же победитель возвращается в Москву, то происходит чудесное выздоровление Ленина, приходящего в себя после покушения. Основная сложность была в создании не столько образа Ленина, сколько образа Сталина, который был снова поручен Михаилу Геловани, сыгравшему эту роль в фильме "Человек с ружьем" (в фильме М.Ромма "Ленин в Октябре" роль Сталина исполнил украинский актер Семен Гольдштаб), но по сравнению с предыдущими картинами ленинианы роль Сталина стала гораздо глубже. По мнению ряда историков, картина сыграла свою роль в идеологическом оправдании террора.
Сцены, связанные с мятежом эсеров, покушением, находящимся в бреду Лениным, который после ранения просит отправить Сталина на Южный фронт, Сталиным, выступающим в роли спасителя республики советов, — всё это имеет явно пропагандистскую и мифологическую окраску. Картина «Ленин в 1918 году» относится к классике социалистического реализма и отражает строго каноническое представление о вождях социализма, но при этом не лишена определённых художественных достоинств. Критики отмечали выпуклость и динамизм образа Ленина, созданного Щукиным..

_________________
Вне форума [Профиль] [ЛС]
Показать сообщения:    
Ответить на тему

Текущее время: Сегодня 16:44

Часовой пояс: GMT + 3



Вы не можете начинать темы
Вы не можете отвечать на сообщения
Вы не можете редактировать свои сообщения
Вы не можете удалять свои сообщения
Вы не можете голосовать в опросах
Вы не можете прикреплять файлы к сообщениям
Вы не можете скачивать файлы