Today is a free download without charge Download

Пищеблок (Святослав Подгаевский) [2021 г., триллер, фантастика]

Reply to topic
 
Author
Message

ipevru ®

Longevity: 5 years 11 months

Posts: 3

Торрент-статистика

Post 01-Jun-2021 20:07

[Quote]

Пищеблок
Год выпуска: 2021
Страна: Россия
Жанр: триллер, фантастика
Продолжительность: 50
Перевод: Не требуется
Режиссер: Святослав Подгаевский
Продюссер: Александр Цекало, Иван Самохвалов, Ольга Филипук...
Сценарий: Александр Талал, Алексей Иванов
Премьера в мире: 19 мая 2021
https://www.kinopoisk.ru/series/1405843/
В ролях: Пётр Натаров, Даниил Вершинин, Ангелина Стречина, Илья Коробко, Ирина Пегова, Сергей Шакуров, Тимофей Трибунцев, Роман Мадянов, Яна Гладких, Никита Клещёв, Владислав Семилетков, Пётр Терещенко, Маруся Климова, Виталия Корниенко, Яна Коновалова, Мария Абрамова, Никита Кологривый, Фёдор Федосеев, Арсений Мурзин, Николай Фоменко, Денис Парамонов
Описание: Пока вся страна следит за Олимпиадой-80, в пионерском лагере «Буревестник» на Волге происходят странные события. Дети загадочно исчезают по ночам, а потом возвращаются — но совсем не такими, как прежде. Увлеченные летней свободой и друг другом вожатые не замечают, как в их отрядах оживают страшные пионерские легенды, а руководство лагеря делает вид, что все в порядке. Разбираться в тайнах «Буревестника» придется мальчику Валерке и вожатому Игорю. Для начала им предстоит понять, остался ли в лагере хоть кто-то, кому можно доверять.
Формат: MKV
Видео кодек: H.264
Аудио кодек: AC3
Видео: AVC, 1920x804 (2,40:1), 25,000 кадров/сек, ~4939 Кбит/сек, 0.128 bit/pixel
Аудио: AC3, 48 kHz, 3/2 (L,C,R,l,r) + LFE ch, 384 Кбит/сек
Релиз от: ExKinoRay

MI

Общее
Уникальный идентификатор : 202584097478254694462934944804548948661 (0x98684728523CFCBC8CD082AB69F4B2B5)
Полное имя : E:\Pisheblok.2021.WEB-DL.(1080p).ExKinoRay\Pisheblok.E01.2021.WEB-DL.(1080p).ExKinoRay.mkv
Формат : Matroska
Версия формата : Version 2
Размер файла : 1,64 Гбайт
Продолжительность : 43 м. 9 с.
Общий поток : 5 431 Кбит/сек
Дата кодирования : UTC 2021-05-18 22:42:58
Программа кодирования : mkvmerge v5.8.0 ('No Sleep / Pillow') built on Sep 2 2012 15:37:04
Библиотека кодирования : libebml v1.2.3 + libmatroska v1.3.0
Видео
Идентификатор : 1
Формат : AVC
Формат/Информация : Advanced Video Codec
Профиль формата : High@L4
Настройки формата : CABAC / 5 Ref Frames
Параметр CABAC формата : Да
Параметр RefFrames формата : 5 кадров
Идентификатор кодека : V_MPEG4/ISO/AVC
Продолжительность : 43 м. 9 с.
Битрейт : 4 939 Кбит/сек
Номинальный битрейт : 6 000 Кбит/сек
Ширина : 1 920 пикселей
Высота : 804 пикселя
Соотношение сторон : 2,40:1
Режим частоты кадров : Постоянный
Частота кадров : 25,000 кадров/сек
Цветовое пространство : YUV
Субдискретизация насыщенности : 4:2:0
Битовая глубина : 8 бит
Тип развёртки : Прогрессивная
Бит/(Пиксели*Кадры) : 0.128
Размер потока : 1,49 Гбайт (91%)
Библиотека кодирования : x264 core 157 r2969 d4099dd
Настройки программы : cabac=1 / ref=5 / deblock=1:0:0 / analyse=0x3:0x133 / me=umh / subme=10 / psy=1 / psy_rd=1.00:0.00 / mixed_ref=1 / me_range=24 / chroma_me=1 / trellis=2 / 8x8dct=1 / cqm=0 / deadzone=21,11 / fast_pskip=1 / chroma_qp_offset=-2 / threads=25 / lookahead_threads=4 / sliced_threads=0 / nr=0 / decimate=1 / interlaced=0 / bluray_compat=0 / stitchable=1 / constrained_intra=0 / bframes=8 / b_pyramid=2 / b_adapt=2 / b_bias=0 / direct=3 / weightb=1 / open_gop=0 / weightp=2 / keyint=200 / keyint_min=100 / scenecut=40 / intra_refresh=0 / rc_lookahead=60 / rc=2pass / mbtree=1 / bitrate=6000 / ratetol=1.0 / qcomp=0.60 / qpmin=0 / qpmax=69 / qpstep=4 / cplxblur=20.0 / qblur=0.5 / vbv_maxrate=6600 / vbv_bufsize=1100 / nal_hrd=none / filler=0 / ip_ratio=1.40 / aq=1:1.00
Язык : Russian
Default : Да
Forced : Нет
Аудио
Идентификатор : 2
Формат : AC-3
Формат/Информация : Audio Coding 3
Коммерческое название : Dolby Digital
Идентификатор кодека : A_AC3
Продолжительность : 43 м. 9 с.
Вид битрейта : Постоянный
Битрейт : 384 Кбит/сек
Каналы : 6 каналов
Channel layout : L R C LFE Ls Rs
Частота : 48,0 КГц
Частота кадров : 31,250 кадров/сек (1536 SPF)
Метод сжатия : С потерями
Размер потока : 119 Мбайт (7%)
Язык : Russian
Service kind : Complete Main
Default : Да
Forced : Нет
Текст
Идентификатор : 3
Формат : UTF-8
Идентификатор кодека : S_TEXT/UTF8
Идентификатор кодека/Информация : UTF-8 Plain Text
Язык : Russian
Default : Нет
Forced : Нет

Скриншоты

 
 
 
 


Last edited by ipevru on 2021-06-06 16:12; edited 6 times in total
Other forum [Profile] [PM]

}{@R0N

Longevity: 5 years 7 months

Posts: 7742

Торрент-статистика

Post 01-Jun-2021 23:32 (after 3 hours)

[Quote]

Спасибо за релиз


Last edited by }{@R0N on 2021-06-07 00:15; edited 1 time in total
Other forum [Profile] [PM]

ipevru ®

Longevity: 5 years 11 months

Posts: 3

Торрент-статистика

Post 06-Jun-2021 16:13 (after 4 days)

[Quote]

четвертая серия вышла
Other forum [Profile] [PM]
Display posts from previous:    
Reply to topic

The time now is: Today 11:03

All times are GMT + 3 Hours



You cannot post new topics in this forum
You cannot reply to topics in this forum
You cannot edit your posts in this forum
You cannot delete your posts in this forum
You cannot vote in polls in this forum
You cannot attach files in this forum
You cannot download files in this forum